<?xml version="1.0" standalone="no"?>
<!DOCTYPE svg PUBLIC "-//W3C//DTD SVG 1.1//EN" "http://www.w3.org/Graphics/SVG/1.1/DTD/svg11.dtd" >
<svg>
<metadata>
Created by FontForge 20090622 at Mon Nov  9 13:55:48 2015
 By deploy user
Copyright &#194;&#169; 2011 Linotype Corp. All rights reserved. This font software may not be reproduced, modified, disclosed or transferred without the express written approval of Linotype Corp.
</metadata>
<defs>
<font id="HelveticaNeueLTW1G-Roman" horiz-adv-x="1139" >
  <font-face 
    font-family="HelveticaNeueLT W1G 55 Roman"
    font-weight="400"
    font-stretch="normal"
    units-per-em="2048"
    panose-1="2 11 6 4 2 2 2 2 2 4"
    ascent="1638"
    descent="-410"
    x-height="1059"
    cap-height="1462"
    bbox="-340 -507 2204 1993"
    underline-thickness="102"
    underline-position="-103"
    unicode-range="U+000D-U+FB04"
  />
<missing-glyph horiz-adv-x="1049" 
d="M1049 1470v-1470h-1049v1470h1049zM946 102v1264h-844v-1264h844zM530 1247q110 0 182 -74t72 -194q0 -82 -33 -135.5t-98 -112.5q-67 -60 -82.5 -94.5t-15.5 -157.5h-94l-4 40q0 116 34 175t94 114q34 31 64.5 70.5t30.5 92.5q0 72 -46.5 123t-109.5 51
q-67 0 -111.5 -48t-56.5 -146l-102 16q14 137 85.5 208.5t190.5 71.5zM455 377h114v-137h-114v137z" />
    <glyph glyph-name="IJ" unicode="IJ" horiz-adv-x="1577" 
d="M362 1462v-1462h-194v1462h194zM1417 1462v-1104q0 -173 -109 -283t-323 -110q-197 0 -311.5 104.5t-114.5 360.5v51h195v-45q0 -180 58.5 -243.5t176.5 -63.5q120 0 177 63.5t57 192.5v1077h194z" />
    <glyph glyph-name="ij" unicode="ij" horiz-adv-x="897" 
d="M315 1462v-213h-174v213h174zM315 1059v-1059h-174v1059h174zM757 1462v-213h-174v213h174zM757 1059v-1201q0 -124 -63.5 -194t-190.5 -70q-24 0 -46 2t-44 7v149q14 -3 28.5 -3.5t28.5 -0.5q52 1 70.5 11.5t30.5 36t12 89.5v1174h174z" />
    <glyph glyph-name="napostrophe" unicode="&#x22;n" horiz-adv-x="1358" 
d="M863 1083q191 0 277.5 -98t86.5 -280v-705h-174v723q0 90 -57.5 148.5t-159.5 58.5q-147 0 -229.5 -90.5t-82.5 -234.5v-605h-174v1059h164v-168h4q58 99 142.5 145.5t202.5 46.5zM266 1462v-235q0 -124 -57.5 -208t-167.5 -85v102q57 0 87.5 51.5t31.5 147.5h-121v227
h227z" />
    <glyph glyph-name="f_f" unicode="ff" horiz-adv-x="1182" 
d="M494 1479q22 0 57.5 -5t56.5 -12v-151q-20 7 -49 10.5t-49 3.5q-73 0 -103 -30t-30 -84v-152h401v165q0 118 73.5 186.5t217.5 68.5q22 0 56.5 -5t58.5 -12v-151q-21 7 -49.5 10.5t-49.5 3.5q-72 0 -102.5 -29.5t-30.5 -84.5v-152h205v-154h-205v-905h-174v905h-401v-905
h-174v905h-178v154h178v165q0 117 73.5 186t217.5 69z" />
    <glyph glyph-name="fi" unicode="fi" horiz-adv-x="1061" 
d="M494 1479q22 0 57.5 -5t56.5 -12v-151q-20 7 -49 10.5t-49 3.5q-73 0 -103 -30t-30 -84v-152h205v-154h-205v-905h-174v905h-178v154h178v165q0 117 73.5 186t217.5 69zM922 1462v-213h-174v213h174zM922 1059v-1059h-174v1059h174z" />
    <glyph glyph-name="fl" unicode="fl" horiz-adv-x="1061" 
d="M494 1479q22 0 57.5 -5t56.5 -12v-151q-20 7 -49 10.5t-49 3.5q-73 0 -103 -30t-30 -84v-152h205v-154h-205v-905h-174v905h-178v154h178v165q0 117 73.5 186t217.5 69zM922 1462v-1462h-174v1462h174z" />
    <glyph glyph-name="f_f_i" unicode="ffi" horiz-adv-x="1636" 
d="M494 1479q22 0 57.5 -5t56.5 -12v-151q-20 7 -49 10.5t-49 3.5q-73 0 -103 -30t-30 -84v-152h401v165q0 118 73.5 186.5t217.5 68.5q22 0 56.5 -5t58.5 -12v-151q-21 7 -49.5 10.5t-49.5 3.5q-72 0 -102.5 -29.5t-30.5 -84.5v-152h205v-154h-205v-905h-174v905h-401v-905
h-174v905h-178v154h178v165q0 117 73.5 186t217.5 69zM1497 1462v-213h-174v213h174zM1497 1059v-1059h-174v1059h174z" />
    <glyph glyph-name="f_f_l" unicode="ffl" horiz-adv-x="1636" 
d="M494 1479q22 0 57.5 -5t56.5 -12v-151q-20 7 -49 10.5t-49 3.5q-73 0 -103 -30t-30 -84v-152h401v165q0 118 73.5 186.5t217.5 68.5q22 0 56.5 -5t58.5 -12v-151q-21 7 -49.5 10.5t-49.5 3.5q-72 0 -102.5 -29.5t-30.5 -84.5v-152h205v-154h-205v-905h-174v905h-401v-905
h-174v905h-178v154h178v165q0 117 73.5 186t217.5 69zM1497 1462v-1462h-174v1462h174z" />
    <glyph glyph-name=".notdef" horiz-adv-x="1049" 
d="M1049 1470v-1470h-1049v1470h1049zM946 102v1264h-844v-1264h844zM530 1247q110 0 182 -74t72 -194q0 -82 -33 -135.5t-98 -112.5q-67 -60 -82.5 -94.5t-15.5 -157.5h-94l-4 40q0 116 34 175t94 114q34 31 64.5 70.5t30.5 92.5q0 72 -46.5 123t-109.5 51
q-67 0 -111.5 -48t-56.5 -146l-102 16q14 137 85.5 208.5t190.5 71.5zM455 377h114v-137h-114v137z" />
    <glyph glyph-name=".null" horiz-adv-x="0" 
 />
    <glyph glyph-name="nonmarkingreturn" unicode="&#xd;" horiz-adv-x="569" 
 />
    <glyph glyph-name="space" unicode=" " horiz-adv-x="569" 
 />
    <glyph glyph-name="exclam" unicode="!" horiz-adv-x="530" 
d="M362 1462v-450l-51 -637h-92l-51 637v450h194zM379 227v-227h-227v227h227z" />
    <glyph glyph-name="quotedbl" unicode="&#x22;" horiz-adv-x="872" 
d="M362 1462v-528h-139v528h139zM649 1462v-528h-139v528h139z" />
    <glyph glyph-name="numbersign" unicode="#" 
d="M551 1427l-59 -419h253l59 412l2 7h140l-59 -419h182v-140h-201l-43 -307h187v-139h-207l-60 -421h-141l60 421h-254l-60 -421h-141l59 421h-198v139h219l43 307h-209v140h227l59 412l2 7h140zM430 561h254l43 307h-254z" />
    <glyph glyph-name="dollar" unicode="$" 
d="M514 1632h113v-137q161 -19 260 -120t143 -285h-174q-21 105 -81 163.5t-148 73.5v-504l128 -34q77 -21 155.5 -73.5t121.5 -130.5t43 -175q0 -188 -119.5 -306.5t-327.5 -138.5v-168h-114v168q-209 23 -327 147.5t-136 333.5h174q6 -131 81.5 -212.5t207.5 -104.5v543
q-235 55 -327.5 141.5t-92.5 253.5q0 172 113 292t307 138v135zM279 1085q0 -90 52.5 -142.5t182.5 -88.5v479q-108 -11 -171.5 -75.5t-63.5 -172.5zM627 129q132 10 198 77t66 185q0 90 -55 148t-209 104v-514z" />
    <glyph glyph-name="percent" unicode="%" horiz-adv-x="2048" 
d="M1661 1479l-1100 -1524h-176l1102 1524h174zM520 1452q166 0 247 -104.5t81 -304.5q0 -190 -85.5 -301t-242.5 -111q-163 0 -247.5 105.5t-84.5 299.5q0 199 85 307.5t247 108.5zM342 1039q0 -156 45 -226t127 -70q87 0 133.5 74t46.5 225q0 156 -44 226.5t-131 70.5
q-84 0 -130.5 -74.5t-46.5 -225.5zM1532 797q162 0 245 -102.5t83 -306.5q0 -186 -85.5 -299.5t-242.5 -113.5q-160 0 -246 104t-86 302q0 199 85 307.5t247 108.5zM1354 385q0 -157 44.5 -227t127.5 -70q90 0 135 75.5t45 224.5q0 152 -44.5 224t-130.5 72
q-84 0 -130.5 -74t-46.5 -225z" />
    <glyph glyph-name="ampersand" unicode="&#x26;" horiz-adv-x="1290" 
d="M578 1462q153 0 253.5 -82t100.5 -217q0 -110 -70 -206t-205 -173l265 -321q19 54 31.5 109.5t15.5 117.5h166q-13 -126 -31 -190t-68 -170l285 -330h-227l-156 181q-63 -96 -175 -151t-240 -55q-220 0 -337.5 114.5t-117.5 286.5q0 136 79 241.5t263 199.5l-69 93
q-46 62 -69.5 121.5t-23.5 129.5q0 127 90.5 214t239.5 87zM422 1154q0 -47 28 -99t113 -156q113 72 154 130t41 124q0 64 -46.5 110t-122.5 46q-66 0 -116.5 -42t-50.5 -113zM252 378q0 -106 84 -177.5t194 -71.5q97 0 176.5 45.5t135.5 128.5l-337 404
q-138 -76 -195.5 -151t-57.5 -178z" />
    <glyph glyph-name="quotesingle" unicode="'" horiz-adv-x="569" 
d="M354 1462v-528h-139v528h139z" />
    <glyph glyph-name="parenleft" unicode="(" horiz-adv-x="530" 
d="M551 1497q-138 -216 -204 -445t-66 -499q0 -274 65.5 -505t204.5 -454h-133q-176 274 -249 501t-73 458q0 240 82 486.5t240 457.5h133z" />
    <glyph glyph-name="parenright" unicode=")" horiz-adv-x="530" 
d="M113 1497q163 -252 242 -482.5t79 -475.5q0 -249 -83 -492t-238 -453h-133q137 217 203.5 446t66.5 499q0 272 -66.5 504.5t-203.5 453.5h133z" />
    <glyph glyph-name="asterisk" unicode="*" horiz-adv-x="721" 
d="M303 1462h109v-231l219 82l41 -99l-223 -77l135 -187l-84 -63l-142 196l-133 -196l-92 63l133 187l-217 77l37 99l217 -82v231z" />
    <glyph glyph-name="plus" unicode="+" horiz-adv-x="1229" 
d="M684 1036v-448h446v-139h-446v-449h-139v449h-447v139h447v448h139z" />
    <glyph glyph-name="comma" unicode="," horiz-adv-x="569" 
d="M397 227v-218q0 -113 -55.5 -194t-169.5 -116v102q53 19 86 69t33 119v11h-121v227h227z" />
    <glyph glyph-name="hyphen" unicode="-" horiz-adv-x="797" 
d="M694 651v-164h-592v164h592z" />
    <glyph glyph-name="period" unicode="." horiz-adv-x="569" 
d="M397 227v-227h-227v227h227z" />
    <glyph glyph-name="slash" unicode="/" horiz-adv-x="682" 
d="M719 1497l-606 -1532h-150l606 1532h150z" />
    <glyph glyph-name="zero" unicode="0" 
d="M569 1452q122 0 211.5 -39.5t151.5 -120.5q121 -157 121 -579q0 -212 -29.5 -354.5t-91.5 -223.5q-60 -78 -150.5 -119t-212.5 -41q-242 0 -362 162q-121 162 -121 576q0 417 121 577q122 162 362 162zM270 715q0 -174 19.5 -288.5t56.5 -176.5q77 -121 223 -121
q162 0 232 139q35 71 51 180t16 261q0 51 -1 114t-9 128t-25.5 127t-50.5 110q-34 49 -85.5 79.5t-129.5 30.5q-69 0 -124 -29t-95 -89q-78 -119 -78 -465z" />
    <glyph glyph-name="one" unicode="1" 
d="M729 1452v-1452h-174v1040h-377v140h6q184 0 285 66t127 206h133z" />
    <glyph glyph-name="two" unicode="2" 
d="M557 1452q201 0 328 -113.5t127 -304.5q0 -150 -84 -271t-356 -278q-166 -96 -235.5 -172t-84.5 -159h745v-154h-948q15 181 93.5 317t293.5 264q254 155 322.5 243t68.5 211q0 114 -80 188.5t-200 74.5q-131 0 -207 -97.5t-76 -248.5v-14h-174l-1 36q0 216 128 347
t340 131z" />
    <glyph glyph-name="three" unicode="3" 
d="M540 1452q209 0 325.5 -103.5t116.5 -284.5q0 -88 -51.5 -165.5t-149.5 -124.5v-4q128 -29 195 -121t67 -231q0 -203 -139 -323t-360 -120q-218 0 -351 121.5t-133 345.5v7h175q6 -155 88.5 -237.5t220.5 -82.5q135 0 225 79t90 202q0 128 -85 203t-231 75
q-21 0 -46.5 -1.5t-51.5 -4.5v147q23 -2 64 -2q101 0 161 32.5t94 83t34 122.5q0 108 -70 170.5t-188 62.5q-127 0 -199.5 -83t-75.5 -232h-174q11 227 128 348t321 121z" />
    <glyph glyph-name="four" unicode="4" 
d="M858 1452v-958h197v-154h-197v-340h-164v340h-637v168l662 944h139zM690 1204l-483 -710h487v710h-4z" />
    <glyph glyph-name="five" unicode="5" 
d="M963 1427v-153h-586l-78 -418l4 -4q46 50 115.5 77t155.5 27q211 0 339.5 -132t128.5 -364q0 -209 -140 -347t-367 -138q-194 0 -325.5 112t-137.5 302v2h174q8 -116 93.5 -189t211.5 -73q134 0 220.5 92t86.5 252q0 148 -94.5 239t-233.5 91q-77 0 -144.5 -34.5
t-125.5 -102.5l-149 8l135 753h717z" />
    <glyph glyph-name="six" unicode="6" 
d="M612 1452q180 0 286.5 -97t123.5 -274h-174q-14 104 -79 160.5t-165 56.5q-168 0 -256.5 -139.5t-95.5 -410.5l4 -5q59 96 148.5 143.5t213.5 47.5q198 0 321.5 -130.5t123.5 -339.5t-127.5 -349t-357.5 -140q-247 0 -373.5 173.5t-126.5 526.5q0 376 136 576.5
t398 200.5zM285 453q0 -143 83 -233.5t218 -90.5q129 0 211 91t82 231q0 150 -79 239.5t-216 89.5q-136 0 -217.5 -91t-81.5 -236z" />
    <glyph glyph-name="seven" unicode="7" 
d="M1042 1427v-149q-223 -224 -378 -578t-179 -700h-194q24 339 169.5 663t403.5 601h-762v163h940z" />
    <glyph glyph-name="eight" unicode="8" 
d="M560 1452q206 0 322.5 -101t116.5 -269q0 -94 -51 -174.5t-149 -127.5q127 -39 192.5 -131.5t65.5 -230.5q0 -199 -135.5 -321t-346.5 -122q-223 0 -358 117.5t-135 325.5q0 129 66 224.5t188 137.5q-96 41 -149.5 123.5t-53.5 178.5q0 165 123 267.5t304 102.5z
M317 1075q0 -104 69 -168.5t189 -64.5q109 0 174.5 63t65.5 170q0 106 -65.5 164.5t-180.5 58.5q-113 0 -182.5 -62.5t-69.5 -160.5zM266 410q0 -127 86 -204t223 -77q129 0 213 79.5t84 203.5q0 115 -88 195.5t-213 80.5q-129 0 -217 -77.5t-88 -200.5z" />
    <glyph glyph-name="nine" unicode="9" 
d="M547 1452q252 0 374.5 -172.5t122.5 -522.5q0 -401 -126 -591.5t-377 -190.5q-188 0 -305 95.5t-136 279.5h174q14 -106 87.5 -163.5t179.5 -57.5q159 0 239 138t88 423l-4 4q-51 -93 -139.5 -146.5t-197.5 -53.5q-213 0 -335 130.5t-122 354.5q0 206 134 339.5
t343 133.5zM254 955q0 -125 84 -216.5t203 -91.5q129 0 213 92.5t84 227.5q0 140 -80.5 235.5t-220.5 95.5q-133 0 -208 -92.5t-75 -250.5z" />
    <glyph glyph-name="colon" unicode=":" horiz-adv-x="569" 
d="M397 1059v-228h-227v228h227zM397 227v-227h-227v227h227z" />
    <glyph glyph-name="semicolon" unicode=";" horiz-adv-x="569" 
d="M397 1059v-228h-227v228h227zM397 227v-229q0 -99 -54.5 -181t-170.5 -118v102q53 18 86 69.5t33 118.5v11h-121v227h227z" />
    <glyph glyph-name="less" unicode="&#x3c;" horiz-adv-x="1229" 
d="M1135 913l-871 -395l871 -395v-139l-1041 471v127l1041 471v-140z" />
    <glyph glyph-name="equal" unicode="=" horiz-adv-x="1229" 
d="M1130 795v-140h-1032v140h1032zM1130 381v-139h-1032v139h1032z" />
    <glyph glyph-name="greater" unicode="&#x3e;" horiz-adv-x="1229" 
d="M94 1053l1041 -471v-127l-1041 -471v139l871 395l-871 395v140z" />
    <glyph glyph-name="question" unicode="?" 
d="M569 1497q197 0 315 -110.5t118 -299.5q0 -101 -44 -184t-148 -177q-71 -65 -104 -113.5t-46 -89t-13 -105.5v-62h-174v88q0 97 39.5 175t140.5 171q108 100 136.5 163.5t28.5 126.5q0 119 -65 191t-184 72q-135 0 -209 -89.5t-74 -247.5h-175v22q0 196 124.5 332.5
t333.5 136.5zM672 227v-227h-228v227h228z" />
    <glyph glyph-name="at" unicode="@" horiz-adv-x="1638" 
d="M846 1497q290 0 493 -181t203 -450q0 -161 -75 -298.5t-190.5 -216.5t-213.5 -79q-57 0 -92 35.5t-39 98.5h-6q-60 -68 -126 -103t-128 -35q-126 0 -209.5 92.5t-83.5 232.5q0 229 140.5 405t340.5 176q82 0 140 -43t90 -125l47 129h129l-170 -577q-17 -55 -21 -73.5
t-4 -35.5q0 -31 12.5 -47.5t36.5 -16.5q93 0 188 154.5t95 316.5q0 228 -163 378t-392 150q-257 0 -440 -196.5t-183 -460.5q0 -267 186.5 -458t446.5 -191q143 0 281 66.5t227 181.5h129q-98 -168 -270.5 -264.5t-370.5 -96.5q-208 0 -387 102t-280 281t-101 389
q0 312 224.5 536t535.5 224zM532 606q0 -83 48.5 -140.5t128.5 -57.5q123 0 220 148t97 287q0 72 -49.5 131.5t-118.5 59.5q-129 0 -227.5 -140t-98.5 -288z" />
    <glyph glyph-name="A" unicode="A" horiz-adv-x="1327" 
d="M772 1462l571 -1462h-215l-159 440h-619l-164 -440h-200l571 1462h215zM659 1286l-247 -682h495l-243 682h-5z" />
    <glyph glyph-name="B" unicode="B" horiz-adv-x="1403" 
d="M784 1462q271 0 368 -109.5t97 -248.5q0 -116 -57 -201t-160 -127v-4q135 -29 207 -123t72 -229q0 -179 -125 -299.5t-312 -120.5h-714v1462h624zM753 834q146 0 224 54.5t78 178.5q0 116 -65 173.5t-235 57.5h-401v-464h399zM849 164q119 0 193 70.5t74 191.5
q0 123 -84 183.5t-241 60.5h-437v-506h495z" />
    <glyph glyph-name="C" unicode="C" horiz-adv-x="1479" 
d="M780 1497q243 0 406.5 -126t195.5 -349h-194q-32 150 -140.5 230.5t-269.5 80.5q-232 0 -363.5 -164t-131.5 -428q0 -280 129 -446t368 -166q179 0 293.5 113.5t128.5 308.5h195q-32 -284 -197.5 -435t-435.5 -151q-314 0 -495 208t-181 554q0 341 187 555.5t505 214.5z
" />
    <glyph glyph-name="D" unicode="D" horiz-adv-x="1442" 
d="M673 1462q332 0 511.5 -176t179.5 -521q0 -386 -177.5 -575.5t-513.5 -189.5h-513v1462h513zM685 164q219 0 351.5 143t132.5 432q0 290 -120.5 424.5t-356.5 134.5h-338v-1134h331z" />
    <glyph glyph-name="E" unicode="E" horiz-adv-x="1251" 
d="M1169 1462v-164h-815v-464h760v-164h-760v-506h822v-164h-1016v1462h1009z" />
    <glyph glyph-name="F" unicode="F" horiz-adv-x="1176" 
d="M1120 1462v-164h-766v-464h672v-164h-672v-670h-194v1462h960z" />
    <glyph glyph-name="G" unicode="G" horiz-adv-x="1554" 
d="M785 1497q259 0 425 -124t203 -361h-194q-29 155 -142.5 238t-292.5 83q-234 0 -367.5 -173t-133.5 -447q0 -251 138 -417.5t363 -166.5q210 0 340 126.5t130 327.5v23h-468v164h641v-770h-122l-52 182q-79 -104 -202.5 -160.5t-266.5 -56.5q-299 0 -497.5 214.5
t-198.5 523.5q0 346 187.5 570t509.5 224z" />
    <glyph glyph-name="H" unicode="H" horiz-adv-x="1479" 
d="M354 1462v-628h770v628h195v-1462h-195v670h-770v-670h-194v1462h194z" />
    <glyph glyph-name="I" unicode="I" horiz-adv-x="530" 
d="M362 1462v-1462h-194v1462h194z" />
    <glyph glyph-name="J" unicode="J" horiz-adv-x="1063" 
d="M903 1462v-1104q0 -173 -109 -283t-323 -110q-197 0 -311.5 104.5t-114.5 360.5v51h195v-45q0 -180 58.5 -243.5t176.5 -63.5q120 0 177 63.5t57 192.5v1077h194z" />
    <glyph glyph-name="K" unicode="K" horiz-adv-x="1366" 
d="M354 1462v-729l742 729h252l-617 -590l641 -872h-246l-528 739l-244 -227v-512h-194v1462h194z" />
    <glyph glyph-name="L" unicode="L" 
d="M354 1462v-1298h774v-164h-968v1462h194z" />
    <glyph glyph-name="M" unicode="M" horiz-adv-x="1784" 
d="M430 1462l461 -1228l463 1228h266v-1462h-184v1217h-4l-457 -1217h-166l-457 1217h-4v-1217h-184v1462h266z" />
    <glyph glyph-name="N" unicode="N" horiz-adv-x="1479" 
d="M365 1462l770 -1186h4v1186h184v-1462h-213l-764 1174h-4v-1174h-184v1462h207z" />
    <glyph glyph-name="O" unicode="O" horiz-adv-x="1556" 
d="M778 1497q213 0 371 -98.5t244 -277t86 -390.5q0 -214 -85.5 -391.5t-245 -276t-370.5 -98.5t-369.5 98t-244.5 275.5t-86 392.5q0 332 190.5 549t509.5 217zM272 731q0 -163 59.5 -304t175 -219.5t271.5 -78.5q235 0 370.5 169.5t135.5 432.5q0 260 -134 431t-374 171
q-235 0 -369.5 -172t-134.5 -430z" />
    <glyph glyph-name="P" unicode="P" horiz-adv-x="1327" 
d="M810 1462q201 0 320 -109t119 -323q0 -215 -119 -323.5t-306 -108.5h-470v-598h-194v1462h650zM756 762q139 0 219 65.5t80 202.5q0 135 -79 201.5t-232 66.5h-390v-536h402z" />
    <glyph glyph-name="Q" unicode="Q" horiz-adv-x="1556" 
d="M778 1497q213 0 371.5 -98.5t244 -277t85.5 -390.5q0 -164 -54 -316t-168 -265l193 -154l-98 -123l-224 180q-73 -44 -160.5 -66t-189.5 -22q-211 0 -369.5 98.5t-244.5 275.5t-86 392q0 332 191 549t509 217zM272 731q0 -163 59.5 -304t175 -219.5t271.5 -78.5
q54 0 104.5 10.5t98.5 30.5l-162 129l103 119l194 -156q81 81 124.5 203t43.5 266q0 260 -134 431t-374 171q-235 0 -369.5 -172t-134.5 -430z" />
    <glyph glyph-name="R" unicode="R" horiz-adv-x="1403" 
d="M857 1462q191 0 313 -101t122 -282q0 -144 -63 -239t-191 -131v-4q111 -22 163.5 -103.5t60.5 -279.5q5 -128 24 -201t57 -121h-217q-18 24 -23.5 47.5t-10.5 64.5l-8 161q-3 113 -48.5 230t-200.5 122h-481v-625h-194v1462h697zM770 788q162 0 245 63.5t83 197.5
q0 118 -66.5 183.5t-186.5 65.5h-491v-510h416z" />
    <glyph glyph-name="S" unicode="S" horiz-adv-x="1327" 
d="M651 1497q244 0 387 -118t152 -345h-184q-17 150 -108 224.5t-255 74.5q-156 0 -242 -64.5t-86 -184.5q0 -86 73.5 -141t396.5 -120q234 -48 350 -147t116 -275q0 -204 -166.5 -320t-405.5 -116q-265 0 -433 133t-170 383h184q2 -167 119.5 -259.5t306.5 -92.5
q177 0 274 68.5t97 197.5q0 104 -89 167t-323 108q-312 59 -418 152.5t-106 246.5q0 197 149.5 312.5t380.5 115.5z" />
    <glyph glyph-name="T" unicode="T" horiz-adv-x="1176" 
d="M1174 1462v-164h-488v-1298h-194v1298h-488v164h1170z" />
    <glyph glyph-name="U" unicode="U" horiz-adv-x="1479" 
d="M346 1462v-942q0 -179 102.5 -285t303.5 -106q189 0 285 105.5t96 285.5v942h194v-944q0 -258 -144.5 -405.5t-430.5 -147.5q-299 0 -449.5 144t-150.5 409v944h194z" />
    <glyph glyph-name="V" unicode="V" horiz-adv-x="1251" 
d="M209 1462l418 -1267h4l422 1267h202l-520 -1462h-221l-516 1462h211z" />
    <glyph glyph-name="W" unicode="W" horiz-adv-x="1896" 
d="M223 1462l287 -1216h4l328 1216h211l323 -1216h4l297 1216h195l-391 -1462h-203l-334 1229h-4l-338 -1229h-203l-374 1462h198z" />
    <glyph glyph-name="X" unicode="X" horiz-adv-x="1251" 
d="M260 1462l365 -571l381 571h217l-484 -710l514 -752h-237l-393 604l-406 -604h-219l510 752l-481 710h233z" />
    <glyph glyph-name="Y" unicode="Y" horiz-adv-x="1327" 
d="M236 1462l438 -696l428 696h221l-559 -864v-598h-195v598l-565 864h232z" />
    <glyph glyph-name="Z" unicode="Z" horiz-adv-x="1251" 
d="M1184 1462v-164l-908 -1134h932v-164h-1163v164l909 1134h-839v164h1069z" />
    <glyph glyph-name="bracketleft" unicode="[" horiz-adv-x="530" 
d="M530 1497v-139h-219v-1624h219v-140h-383v1903h383z" />
    <glyph glyph-name="backslash" unicode="\" horiz-adv-x="682" 
d="M113 1497l606 -1532h-150l-606 1532h150z" />
    <glyph glyph-name="bracketright" unicode="]" horiz-adv-x="530" 
d="M383 1497v-1903h-383v140h219v1624h-219v139h383z" />
    <glyph glyph-name="asciicircum" unicode="^" horiz-adv-x="1229" 
d="M680 1427l446 -886h-143l-371 737l-364 -737h-146l447 886h131z" />
    <glyph glyph-name="underscore" unicode="_" horiz-adv-x="1024" 
d="M1024 -154v-102h-1024v102h1024z" />
    <glyph glyph-name="grave" unicode="`" horiz-adv-x="455" 
d="M176 1499l176 -293h-131l-269 293h224z" />
    <glyph glyph-name="a" unicode="a" horiz-adv-x="1100" 
d="M564 1083q216 0 306.5 -77t90.5 -206v-611t55 -60q12 0 26 3t27 7v-135q-24 -14 -55.5 -21.5t-68.5 -7.5q-72 0 -110 40.5t-38 123.5q-69 -82 -163 -123t-210 -41q-164 0 -257 77.5t-93 219.5q0 143 91 226.5t428 125.5q114 15 154.5 44t40.5 87q0 88 -56.5 131.5
t-179.5 43.5q-129 0 -193.5 -49t-69.5 -152h-174q8 176 124 265t325 89zM258 285q0 -74 54 -115t151 -41q147 0 235 73t88 163v182q-44 -31 -114 -42t-186 -27q-116 -17 -172 -63t-56 -130z" />
    <glyph glyph-name="b" unicode="b" horiz-adv-x="1214" 
d="M311 1462v-547h4q41 82 128.5 125t209.5 43q227 0 357.5 -156t130.5 -401q0 -246 -130 -398.5t-353 -152.5q-99 0 -193.5 41t-149.5 125h-4v-141h-174v1462h174zM305 530q0 -184 89 -292.5t245 -108.5q151 0 234 108t83 301q0 171 -87.5 281.5t-241.5 110.5
q-153 0 -237.5 -112t-84.5 -288z" />
    <glyph glyph-name="c" unicode="c" horiz-adv-x="1100" 
d="M573 1083q194 0 315 -92t142 -272h-180q-21 103 -89.5 157t-172.5 54q-162 0 -246 -108.5t-84 -305.5q0 -176 83 -281.5t226 -105.5q127 0 200.5 68.5t90.5 189.5h178q-29 -198 -149 -305t-318 -107q-231 0 -363 145.5t-132 395.5q0 260 133.5 413.5t365.5 153.5z" />
    <glyph glyph-name="d" unicode="d" horiz-adv-x="1214" 
d="M1077 1462v-1462h-174v143h-4q-41 -82 -130.5 -125t-207.5 -43q-222 0 -354.5 154t-132.5 403q0 245 128.5 398t353.5 153q104 0 197.5 -42t145.5 -123h4v544h174zM258 521q0 -171 88.5 -281.5t239.5 -110.5q154 0 238.5 110.5t84.5 288.5q0 181 -87 291.5t-249 110.5
q-150 0 -232.5 -109.5t-82.5 -299.5z" />
    <glyph glyph-name="e" unicode="e" horiz-adv-x="1100" 
d="M571 1083q228 0 354 -164t126 -421v-21h-793v-13q0 -151 88 -243t242 -92q116 0 184.5 54t89.5 153h172q-35 -176 -154 -268.5t-298 -92.5q-167 0 -282.5 75.5t-170.5 210t-55 275.5q0 234 141 390.5t356 156.5zM258 631h608q-8 129 -93.5 214t-213.5 85q-120 0 -205 -81
t-96 -218z" />
    <glyph glyph-name="f" unicode="f" horiz-adv-x="606" 
d="M494 1479q22 0 57.5 -5t56.5 -12v-151q-20 7 -49 10.5t-49 3.5q-73 0 -103 -30t-30 -84v-152h205v-154h-205v-905h-174v905h-178v154h178v165q0 117 73.5 186t217.5 69z" />
    <glyph glyph-name="g" unicode="g" horiz-adv-x="1176" 
d="M562 1083q111 0 192 -48t125 -128h2v152h163v-980q0 -249 -120 -379t-370 -130q-182 0 -306.5 80t-132.5 231h174q4 -81 86.5 -126.5t187.5 -45.5q154 0 236 102t82 303v66h-4q-41 -88 -129.5 -140t-201.5 -52q-215 0 -343.5 148t-128.5 388q0 243 128.5 401t359.5 158z
M258 545q0 -189 79 -296.5t220 -107.5q144 0 229.5 111.5t85.5 298.5q0 170 -79 274.5t-224 104.5q-146 0 -228.5 -105t-82.5 -280z" />
    <glyph glyph-name="h" unicode="h" 
d="M305 1462v-559h4q38 85 129 132.5t206 47.5q191 0 277.5 -98t86.5 -280v-705h-174v723q0 90 -57.5 148.5t-159.5 58.5q-147 0 -229.5 -90.5t-82.5 -234.5v-605h-174v1462h174z" />
    <glyph glyph-name="i" unicode="i" horiz-adv-x="455" 
d="M315 1462v-213h-174v213h174zM315 1059v-1059h-174v1059h174z" />
    <glyph glyph-name="j" unicode="j" horiz-adv-x="455" 
d="M315 1462v-213h-174v213h174zM315 1059v-1201q0 -124 -63.5 -194t-190.5 -70q-24 0 -46 2t-44 7v149q14 -3 28.5 -3.5t28.5 -0.5q52 1 70.5 11.5t30.5 36t12 89.5v1174h174z" />
    <glyph glyph-name="k" unicode="k" horiz-adv-x="1063" 
d="M315 1462v-866l484 463h233l-420 -385l451 -674h-221l-363 553l-164 -152v-401h-174v1462h174z" />
    <glyph glyph-name="l" unicode="l" horiz-adv-x="455" 
d="M315 1462v-1462h-174v1462h174z" />
    <glyph glyph-name="m" unicode="m" horiz-adv-x="1747" 
d="M641 1083q116 0 189.5 -47t101.5 -133q54 85 141 132.5t192 47.5q179 0 265 -81t86 -219v-783h-174v702q0 114 -48.5 171t-156.5 57q-130 0 -203 -76t-73 -189v-665h-175v702q0 114 -48 171t-150 57q-83 0 -147 -40t-100 -109.5t-36 -117.5v-663h-174v1059h164v-156h4
q60 91 145 135.5t197 44.5z" />
    <glyph glyph-name="n" unicode="n" 
d="M644 1083q191 0 277.5 -98t86.5 -280v-705h-174v723q0 90 -57.5 148.5t-159.5 58.5q-147 0 -229.5 -90.5t-82.5 -234.5v-605h-174v1059h164v-168h4q58 99 142.5 145.5t202.5 46.5z" />
    <glyph glyph-name="o" unicode="o" horiz-adv-x="1176" 
d="M588 1083q240 0 377 -155t137 -400q0 -247 -140 -400t-374 -153q-230 0 -372 150.5t-142 402.5t139 403.5t375 151.5zM258 528q0 -182 93 -290.5t237 -108.5q143 0 236.5 109t93.5 290t-93 291.5t-239 110.5q-140 0 -234 -108.5t-94 -293.5z" />
    <glyph glyph-name="p" unicode="p" horiz-adv-x="1214" 
d="M653 1083q227 0 357.5 -156t130.5 -401q0 -246 -130 -398.5t-353 -152.5q-99 0 -193.5 41t-149.5 125h-4v-547h-174v1465h174v-144h4q41 82 129.5 125t208.5 43zM305 530q0 -184 89 -292.5t245 -108.5q151 0 234 108t83 301q0 171 -87.5 281.5t-241.5 110.5
q-153 0 -237.5 -112t-84.5 -288z" />
    <glyph glyph-name="q" unicode="q" horiz-adv-x="1214" 
d="M556 1083q104 0 197.5 -42t145.5 -123h4v141h174v-1465h-174v549h-4q-41 -82 -130.5 -125t-207.5 -43q-222 0 -354.5 154t-132.5 403q0 245 129.5 398t352.5 153zM258 521q0 -171 88.5 -281.5t239.5 -110.5q154 0 238.5 110.5t84.5 288.5q0 181 -87 291.5t-249 110.5
q-150 0 -232.5 -109.5t-82.5 -299.5z" />
    <glyph glyph-name="r" unicode="r" horiz-adv-x="682" 
d="M658 1084h11t13 -1v-184q-196 0 -289.5 -104t-93.5 -321v-474h-174v1059h164v-223h4q61 126 150.5 187t214.5 61z" />
    <glyph glyph-name="s" unicode="s" horiz-adv-x="1024" 
d="M483 1083q214 0 318 -83t114 -248h-174v2q-7 84 -73.5 130t-171.5 46t-165.5 -35.5t-60.5 -99.5q0 -58 53.5 -95t161.5 -60l164 -37q154 -34 234 -104.5t80 -189.5q0 -156 -121 -245t-330 -89q-203 0 -322 91t-127 268h175q3 -99 78 -152t206 -53q126 0 191 40t65 118
q0 71 -64.5 112.5t-264.5 81.5q-200 39 -281.5 110.5t-81.5 190.5q0 139 113 220t284 81z" />
    <glyph glyph-name="t" unicode="t" horiz-adv-x="645" 
d="M373 1376v-317h211v-154h-211v-663q0 -79 52.5 -83.5t109.5 -4.5h49v-154h-144q-143 0 -192 51t-49 171v683h-181v154h181v317h174z" />
    <glyph glyph-name="u" unicode="u" 
d="M305 1059v-722q0 -90 57.5 -149t158.5 -59q150 0 231.5 91.5t81.5 233.5v605h174v-1059h-164v168h-4q-58 -101 -145 -147t-200 -46q-185 0 -274.5 95.5t-89.5 282.5v706h174z" />
    <glyph glyph-name="v" unicode="v" horiz-adv-x="1024" 
d="M223 1059l297 -883h4l289 883h182l-387 -1059h-186l-393 1059h194z" />
    <glyph glyph-name="w" unicode="w" horiz-adv-x="1552" 
d="M227 1059l240 -866h4l213 866h190l221 -861l2 -5h3l237 866h181l-337 -1056l-2 -3h-184l-214 837l-2 5h-3l-213 -842h-188l-340 1059h192z" />
    <glyph glyph-name="x" unicode="x" horiz-adv-x="1061" 
d="M270 1059l253 -369h2l263 369h209l-364 -488l409 -571h-223l-295 438l-295 -438h-211l398 557l-369 502h223z" />
    <glyph glyph-name="y" unicode="y" horiz-adv-x="1024" 
d="M213 1059l309 -866h4l297 866h185l-450 -1172q-71 -183 -136.5 -247t-181.5 -64q-32 0 -62 4t-59 14v160l50.5 -16t51.5 -8q106 0 148 106l67 170l-420 1053h197z" />
    <glyph glyph-name="z" unicode="z" horiz-adv-x="983" 
d="M909 1059v-119l-647 -786h676v-154h-893v133l639 772h-598v154h823z" />
    <glyph glyph-name="braceleft" unicode="{" horiz-adv-x="682" 
d="M633 1497v-123h-102q-52 0 -75.5 -46.5t-23.5 -122.5v-389q0 -95 -49.5 -169t-128.5 -98v-6q79 -17 128.5 -90.5t49.5 -177.5v-388q0 -78 24 -124t75 -46h102v-123h-148q-80 0 -148.5 74t-68.5 189v386q0 90 -46 159.5t-124 72.5v139q75 3 122.5 74.5t47.5 161.5v385
q0 110 67.5 186t149.5 76h148z" />
    <glyph glyph-name="bar" unicode="|" horiz-adv-x="455" 
d="M297 1610v-2048h-139v2048h139z" />
    <glyph glyph-name="braceright" unicode="}" horiz-adv-x="682" 
d="M187 1497q92 0 159.5 -75.5t67.5 -186.5v-386q0 -91 46 -161.5t124 -73.5v-139q-76 -3 -123 -74t-47 -159v-385q0 -115 -68 -189t-149 -74h-148v123h101q51 0 75.5 46t24.5 124v388q0 98 52 172.5t126 95.5v6q-77 16 -127.5 89t-50.5 178v385q0 78 -23 125.5t-77 47.5
h-101v123h138z" />
    <glyph glyph-name="asciitilde" unicode="~" horiz-adv-x="1229" 
d="M1014 653l73 -102q-59 -92 -119 -134t-137 -42q-100 0 -218 73q-123 73 -225 74q-52 0 -92.5 -34.5t-80.5 -120.5l-74 102q45 88 109 132t147 44q30 0 66.5 -7t80.5 -24q43 -17 85 -36.5l82 -38.5q79 -41 123 -41q40 0 72.5 24t58.5 61z" />
    <glyph glyph-name="uni00A0" unicode="&#xa0;" horiz-adv-x="569" 
 />
    <glyph glyph-name="exclamdown" unicode="&#xa1;" horiz-adv-x="530" 
d="M379 1059v-228h-227v228h227zM219 682h92l51 -637v-451h-194v451z" />
    <glyph glyph-name="cent" unicode="&#xa2;" 
d="M557 1278h80v-195q179 -5 286 -97t130 -267h-179q-23 104 -85.5 155.5t-151.5 55.5v-801q103 11 165 76.5t83 181.5h174q-22 -179 -135.5 -294.5t-286.5 -117.5v-213h-80v213q-216 10 -339.5 158t-123.5 383q0 240 124.5 396t338.5 171v195zM279 517q0 -165 72.5 -270.5
t205.5 -117.5v801q-127 -14 -202.5 -117t-75.5 -296z" />
    <glyph glyph-name="sterling" unicode="&#xa3;" 
d="M586 1497q232 0 357.5 -133t125.5 -375v-20h-174q-5 184 -80.5 279t-218.5 95q-125 0 -209 -78t-84 -191q0 -66 21 -131t86 -181h325v-92h-280q21 -42 31 -80.5t10 -74.5q0 -98 -49 -185t-189 -199l4 -4q85 38 127 48.5t89 10.5q61 0 123.5 -13t124.5 -33q61 -21 117 -21
q50 0 99 23.5t84 52.5l88 -136q-56 -47 -129 -70.5t-169 -23.5q-82 0 -205 42t-213 42q-57 0 -109 -20t-96 -52l-97 136q113 77 169.5 173.5t56.5 191.5q0 35 -12.5 83t-39.5 109h-174v92h119q-47 77 -71.5 154.5t-24.5 164.5q0 183 133 299.5t334 116.5z" />
    <glyph glyph-name="currency" unicode="&#xa4;" 
d="M985 1239l102 -104l-112 -113q51 -53 78.5 -133t27.5 -170q0 -89 -27.5 -168.5t-78.5 -138.5l112 -115l-96 -96l-114 118q-60 -54 -137.5 -83t-166.5 -29q-86 0 -165 26t-146 84l-112 -118l-99 98l113 119q-54 65 -80.5 142.5t-26.5 156.5q0 85 27 164.5t84 138.5
l-117 119l101 100l114 -115q60 50 142 77.5t167 27.5q79 0 159.5 -28t133.5 -75zM231 715q0 -149 101 -252t241 -103q139 0 236.5 104.5t97.5 254.5q0 144 -96 249t-238 105q-141 0 -241.5 -103t-100.5 -255z" />
    <glyph glyph-name="yen" unicode="&#xa5;" 
d="M223 1462l357 -723l346 723h213l-365 -706h191v-123h-258l-37 -68v-86h295v-123h-295v-356h-195v356h-289v123h289v86l-37 68h-252v123h189l-375 706h223z" />
    <glyph glyph-name="brokenbar" unicode="&#xa6;" horiz-adv-x="455" 
d="M297 1354v-512h-139v512h139zM297 330v-512h-139v512h139z" />
    <glyph glyph-name="section" unicode="&#xa7;" 
d="M576 1497q176 0 274.5 -99t101.5 -280h-174q-2 103 -58.5 164t-148.5 61t-143 -47.5t-51 -127.5q0 -66 61 -127t206 -135q262 -135 337.5 -230.5t75.5 -206.5q0 -94 -56.5 -176.5t-156.5 -124.5q61 -46 91 -107.5t30 -138.5q0 -145 -108.5 -236.5t-274.5 -91.5
q-174 0 -286 100t-126 288h174q3 -108 67 -171t167 -63q86 0 146 46.5t60 123.5q0 63 -46.5 117.5t-144.5 110.5l-203 112q-162 86 -240 183t-78 224q0 94 62.5 174.5t156.5 108.5q-48 53 -71 103t-23 114q0 147 112.5 239.5t266.5 92.5zM240 674q0 -76 53 -134.5
t232 -152.5q107 -57 216 -133q73 30 110.5 80.5t37.5 109.5t-47 115.5t-216 154.5t-237 146q-69 -24 -109 -75.5t-40 -110.5z" />
    <glyph glyph-name="dieresis" unicode="&#xa8;" horiz-adv-x="455" 
d="M127 1446v-213h-184v213h184zM512 1446v-213h-184v213h184z" />
    <glyph glyph-name="copyright" unicode="&#xa9;" horiz-adv-x="1638" 
d="M821 1497q317 0 542.5 -222t225.5 -540q0 -323 -226 -546.5t-542 -223.5q-320 0 -546 225t-226 545q0 316 227 539t545 223zM188 735q0 -279 182 -468t451 -189q267 0 448 189.5t181 467.5q0 270 -181 459.5t-450 189.5q-266 0 -448.5 -188.5t-182.5 -460.5zM840 1198
q153 0 256 -81.5t129 -229.5h-129q-21 94 -89 146t-165 52q-145 0 -228.5 -97.5t-83.5 -252.5q0 -151 88.5 -255.5t227.5 -104.5q96 0 165 55t85 154h131q-36 -153 -139 -237.5t-243 -84.5q-201 0 -327.5 131t-126.5 338t121.5 337t327.5 130z" />
    <glyph glyph-name="ordfeminine" unicode="&#xaa;" horiz-adv-x="774" 
d="M383 1452q136 0 201 -47t65 -126v-104v-102v-106q0 -58 5 -72t35 -14h16t18 4v-90q-21 -9 -45 -13t-43 -4q-49 0 -74.5 23t-30.5 70q-46 -47 -105.5 -70t-133.5 -23q-109 0 -174.5 49t-65.5 134q0 88 63 139t161 61q176 19 216.5 33.5t40.5 55.5q0 52 -36.5 76t-120.5 24
q-83 0 -124.5 -27.5t-45.5 -87.5h-123q3 100 82 158.5t219 58.5zM190 965q0 -41 27.5 -62.5t99.5 -21.5q100 0 154.5 40t54.5 103v94q-17 -12 -55.5 -21t-128.5 -22q-84 -13 -118 -38.5t-34 -71.5z" />
    <glyph glyph-name="guillemotleft" unicode="&#xab;" horiz-adv-x="948" 
d="M414 905v-176l-205 -160l205 -159v-177l-312 246v180zM815 905v-176l-205 -160l205 -159v-177l-311 246v180z" />
    <glyph glyph-name="logicalnot" unicode="&#xac;" horiz-adv-x="1229" 
d="M1130 795v-572h-139v432h-893v140h1032z" />
    <glyph glyph-name="uni00AD" unicode="&#xad;" horiz-adv-x="797" 
d="M694 651v-164h-592v164h592z" />
    <glyph glyph-name="registered" unicode="&#xae;" horiz-adv-x="1638" 
d="M821 1497q317 0 542.5 -222t225.5 -540q0 -323 -226 -546.5t-542 -223.5q-320 0 -546 225t-226 545q0 316 227 539t545 223zM188 735q0 -279 182 -468t451 -189q267 0 448 189.5t181 467.5q0 273 -181 461t-450 188q-266 0 -448.5 -187.5t-182.5 -461.5zM877 1180
q146 0 225.5 -62t79.5 -194q0 -102 -56.5 -165.5t-178.5 -78.5l255 -395h-149l-244 385h-147v-385h-140v895h355zM822 782q124 0 172 34t48 114q0 70 -47.5 103.5t-141.5 33.5h-191v-285h160z" />
    <glyph glyph-name="macron" unicode="&#xaf;" horiz-adv-x="455" 
d="M578 1397v-113h-699v113h699z" />
    <glyph glyph-name="degree" unicode="&#xb0;" horiz-adv-x="819" 
d="M410 1452q121 0 208 -88t87 -207q0 -121 -86.5 -208t-208.5 -87q-121 0 -208 84.5t-87 210.5q0 125 87.5 210t207.5 85zM217 1157q0 -77 53.5 -134.5t139.5 -57.5t139 57.5t53 134.5t-54 135t-139 58q-82 0 -137 -57t-55 -136z" />
    <glyph glyph-name="plusminus" unicode="&#xb1;" horiz-adv-x="1229" 
d="M684 1034v-340h446v-139h-446v-342h-139v342h-447v139h447v340h139zM1130 139v-139h-1032v139h1032z" />
    <glyph glyph-name="twosuperior" unicode="&#xb2;" horiz-adv-x="758" 
d="M397 1698q127 0 207 -71.5t80 -186.5q0 -92 -48 -164t-211 -156q-104 -54 -149.5 -99t-56.5 -95h453v-113h-609q7 138 69 232.5t217 171.5q113 56 154.5 100t41.5 119q0 65 -39 107t-111 42q-82 0 -127.5 -51t-48.5 -152h-139q0 142 87.5 229t229.5 87z" />
    <glyph glyph-name="threesuperior" unicode="&#xb3;" horiz-adv-x="758" 
d="M385 1698q126 0 203.5 -66t77.5 -169q0 -59 -39 -108.5t-103 -72.5v-4q88 -21 132 -73t44 -134q0 -124 -91 -200t-231 -76q-149 0 -234 77t-85 213h136q0 -86 49.5 -133t138.5 -47q85 0 132.5 43.5t47.5 116.5q0 72 -47.5 112t-133.5 40h-67v102h22q73 0 99 9.5t45 22
t33 38t14 65.5q0 61 -39.5 97t-103.5 36q-79 0 -122 -45.5t-48 -136.5h-135q5 137 88.5 215t216.5 78z" />
    <glyph glyph-name="acute" unicode="&#xb4;" horiz-adv-x="455" 
d="M502 1499l-269 -293h-131l177 293h223z" />
    <glyph glyph-name="mu" unicode="&#xb5;" 
d="M311 1059v-723q0 -91 56.5 -149t155.5 -58q148 0 229.5 92t81.5 233v605h174v-1059h-164v168h-4q-57 -93 -140 -143t-182 -50q-60 0 -115 18.5t-88 53.5h-4v-453h-174v1465h174z" />
    <glyph glyph-name="paragraph" unicode="&#xb6;" horiz-adv-x="1229" 
d="M1055 1462v-1779h-140v1667h-249v-1667h-140v976q-197 4 -312.5 115.5t-115.5 266.5q0 198 125.5 309.5t332.5 111.5h499z" />
    <glyph glyph-name="periodcentered" unicode="&#xb7;" horiz-adv-x="569" 
d="M285 768q55 0 93 -40t38 -91q0 -49 -39 -90t-90 -41q-53 0 -93 38.5t-40 92.5t39 92.5t92 38.5z" />
    <glyph glyph-name="cedilla" unicode="&#xb8;" horiz-adv-x="455" 
d="M209 0h86l-86 -109l4 -4q18 10 35.5 12.5t32.5 2.5q74 0 123 -41.5t49 -108.5q0 -86 -71 -134t-183 -48q-41 0 -87.5 8.5t-101.5 30.5l37 90q36 -14 69 -20.5t64 -6.5q53 0 86 16.5t33 47.5q0 27 -26.5 45t-70.5 18q-22 0 -41 -3.5t-42 -12.5l-35 57z" />
    <glyph glyph-name="onesuperior" unicode="&#xb9;" horiz-adv-x="758" 
d="M393 1683h103v-870h-140v623h-235v102q127 0 192.5 39t79.5 106z" />
    <glyph glyph-name="ordmasculine" unicode="&#xba;" horiz-adv-x="786" 
d="M393 1452q155 0 248.5 -93t93.5 -247q0 -156 -91 -245t-249 -89q-156 0 -250 91t-94 243q0 149 92.5 244.5t249.5 95.5zM190 1112q0 -105 53 -168t152 -63q100 0 150.5 62.5t50.5 167.5q0 120 -55 179.5t-150 59.5q-89 0 -145 -62t-56 -176z" />
    <glyph glyph-name="guillemotright" unicode="&#xbb;" horiz-adv-x="948" 
d="M133 905l311 -246v-180l-311 -246v177l205 159l-205 160v176zM535 905l311 -246v-180l-311 -246v177l204 159l-204 160v176z" />
    <glyph glyph-name="onequarter" unicode="&#xbc;" horiz-adv-x="1708" 
d="M1329 1485l-891 -1542h-131l891 1542h131zM367 1452h102v-879h-139v631h-236v103h6q114 0 181 35t86 110zM1468 866v-544h115v-113h-115v-209h-135v209h-393v139l393 518h135zM1329 692l-276 -370h280v370h-4z" />
    <glyph glyph-name="onehalf" unicode="&#xbd;" horiz-adv-x="1708" 
d="M1288 1485l-891 -1542h-131l891 1542h131zM367 1452h102v-879h-139v631h-236v103h6q114 0 181 35t86 110zM1325 885q126 0 206.5 -71t80.5 -187q0 -89 -46.5 -161t-218.5 -162q-99 -52 -145.5 -97.5t-54.5 -93.5h452v-113h-608q7 140 72 234.5t201 162.5t172.5 112
t36.5 114q0 66 -39.5 107.5t-110.5 41.5q-84 0 -129 -52.5t-47 -150.5h-139q2 148 89.5 232t227.5 84z" />
    <glyph glyph-name="threequarters" unicode="&#xbe;" horiz-adv-x="1708" 
d="M1434 1485l-891 -1542h-131l891 1542h131zM424 1458q128 0 204.5 -66t76.5 -168q0 -57 -36.5 -106.5t-105.5 -75.5v-4q87 -20 131.5 -72.5t44.5 -134.5q0 -122 -91.5 -199t-229.5 -77q-148 0 -233 74.5t-87 216.5h135q3 -90 52.5 -135t136.5 -45q83 0 131.5 42t48.5 117
q0 69 -45.5 110.5t-128.5 41.5h-74v102h22q71 0 96 8.5t45 21.5t35 38.5t15 66.5q0 60 -40 97t-103 37q-77 0 -121 -46t-49 -137h-135q5 137 88.5 215t216.5 78zM1468 866v-544h115v-113h-115v-209h-135v209h-393v139l393 518h135zM1329 692l-276 -370h280v370h-4z" />
    <glyph glyph-name="questiondown" unicode="&#xbf;" 
d="M690 1059v-228h-227v228h227zM668 694v-42q0 -122 -35.5 -197.5t-151.5 -183.5q-101 -95 -129.5 -158t-28.5 -126q0 -122 66 -192.5t182 -70.5q136 0 210 89.5t75 247.5h174v-3q0 -224 -128 -356t-331 -132q-197 0 -314.5 111t-117.5 299q0 86 34.5 167.5t156.5 194.5
q101 92 132.5 153t31.5 167v32h174z" />
    <glyph glyph-name="Agrave" unicode="&#xc0;" horiz-adv-x="1327" 
d="M772 1462l571 -1462h-215l-159 440h-619l-164 -440h-200l571 1462h215zM659 1286l-247 -682h495l-243 682h-5zM588 1888l176 -293h-131l-268 293h223z" />
    <glyph glyph-name="Aacute" unicode="&#xc1;" horiz-adv-x="1327" 
d="M772 1462l571 -1462h-215l-159 440h-619l-164 -440h-200l571 1462h215zM659 1286l-247 -682h495l-243 682h-5zM957 1888l-269 -293h-131l177 293h223z" />
    <glyph glyph-name="Acircumflex" unicode="&#xc2;" horiz-adv-x="1327" 
d="M772 1462l571 -1462h-215l-159 440h-619l-164 -440h-200l571 1462h215zM659 1286l-247 -682h495l-243 682h-5zM762 1888l213 -293h-173l-141 197l-143 -197h-158l211 293h191z" />
    <glyph glyph-name="Atilde" unicode="&#xc3;" horiz-adv-x="1327" 
d="M772 1462l571 -1462h-215l-159 440h-619l-164 -440h-200l571 1462h215zM659 1286l-247 -682h495l-243 682h-5zM913 1858h107q-16 -94 -65.5 -161t-141.5 -67q-48 0 -94 17.5l-102 40.5q-57 22 -93 22q-37 0 -62.5 -24t-37.5 -62h-107q24 112 78.5 168.5t138.5 56.5
q64 0 151 -41t134 -41q32 0 55.5 21t38.5 70z" />
    <glyph glyph-name="Adieresis" unicode="&#xc4;" horiz-adv-x="1327" 
d="M772 1462l571 -1462h-215l-159 440h-619l-164 -440h-200l571 1462h215zM659 1286l-247 -682h495l-243 682h-5zM565 1837v-213h-184v213h184zM950 1837v-213h-184v213h184z" />
    <glyph glyph-name="Aring" unicode="&#xc5;" horiz-adv-x="1327" 
d="M772 1462l571 -1462h-215l-159 440h-619l-164 -440h-200l571 1462h215zM659 1286l-247 -682h495l-243 682h-5zM663 1993q94 0 163 -68t69 -162q0 -93 -68.5 -161t-163.5 -68t-163 68t-68 161q0 96 70 163t161 67zM526 1761q0 -60 39.5 -99.5t97.5 -39.5q61 0 99.5 40.5
t38.5 98.5t-39 99t-100 41q-57 0 -96.5 -40t-39.5 -100z" />
    <glyph glyph-name="AE" unicode="&#xc6;" horiz-adv-x="1896" 
d="M1821 1462v-164h-719v-464h676v-164h-676v-506h731v-164h-915v426h-504l-209 -426h-219l739 1462h1096zM489 590h429v708h-84z" />
    <glyph glyph-name="Ccedilla" unicode="&#xc7;" horiz-adv-x="1479" 
d="M780 1497q243 0 406.5 -126t195.5 -349h-194q-32 150 -140.5 230.5t-269.5 80.5q-232 0 -363.5 -164t-131.5 -428q0 -280 129 -446t368 -166q179 0 293.5 113.5t128.5 308.5h195q-31 -276 -190.5 -426.5t-426.5 -157.5l-59 -76l4 -4q18 10 35.5 12.5t32.5 2.5
q74 0 123 -41.5t49 -108.5q0 -86 -71 -134t-183 -48q-41 0 -87.5 8.5t-101.5 30.5l37 90q36 -14 69 -20.5t64 -6.5q53 0 86 16.5t33 47.5q0 27 -26.5 45t-70.5 18q-22 0 -41 -3.5t-42 -12.5l-35 57l100 129q-291 24 -449.5 229.5t-158.5 528.5q0 216 81.5 393.5t240.5 277
t370 99.5z" />
    <glyph glyph-name="Egrave" unicode="&#xc8;" horiz-adv-x="1251" 
d="M1169 1462v-164h-815v-464h760v-164h-760v-506h822v-164h-1016v1462h1009zM563 1888l176 -293h-131l-268 293h223z" />
    <glyph glyph-name="Eacute" unicode="&#xc9;" horiz-adv-x="1251" 
d="M1169 1462v-164h-815v-464h760v-164h-760v-506h822v-164h-1016v1462h1009zM953 1888l-269 -293h-131l177 293h223z" />
    <glyph glyph-name="Ecircumflex" unicode="&#xca;" horiz-adv-x="1251" 
d="M1169 1462v-164h-815v-464h760v-164h-760v-506h822v-164h-1016v1462h1009zM748 1888l213 -293h-173l-141 197l-143 -197h-158l211 293h191z" />
    <glyph glyph-name="Edieresis" unicode="&#xcb;" horiz-adv-x="1251" 
d="M1169 1462v-164h-815v-464h760v-164h-760v-506h822v-164h-1016v1462h1009zM553 1837v-213h-184v213h184zM938 1837v-213h-184v213h184z" />
    <glyph glyph-name="Igrave" unicode="&#xcc;" horiz-adv-x="530" 
d="M362 1462v-1462h-194v1462h194zM186 1888l176 -293h-131l-268 293h223z" />
    <glyph glyph-name="Iacute" unicode="&#xcd;" horiz-adv-x="530" 
d="M362 1462v-1462h-194v1462h194zM563 1888l-269 -293h-131l177 293h223z" />
    <glyph glyph-name="Icircumflex" unicode="&#xce;" horiz-adv-x="530" 
d="M362 1462v-1462h-194v1462h194zM363 1888l213 -293h-173l-141 197l-143 -197h-158l211 293h191z" />
    <glyph glyph-name="Idieresis" unicode="&#xcf;" horiz-adv-x="530" 
d="M362 1462v-1462h-194v1462h194zM166 1837v-213h-184v213h184zM551 1837v-213h-184v213h184z" />
    <glyph glyph-name="Eth" unicode="&#xd0;" horiz-adv-x="1442" 
d="M673 1462q332 0 511.5 -176t179.5 -521q0 -386 -177.5 -575.5t-513.5 -189.5h-513v698h-144v131h144v633h513zM793 829v-131h-439v-534h331q219 0 351.5 143t132.5 432q0 290 -120.5 424.5t-356.5 134.5h-338v-469h439z" />
    <glyph glyph-name="Ntilde" unicode="&#xd1;" horiz-adv-x="1479" 
d="M365 1462l770 -1186h4v1186h184v-1462h-213l-764 1174h-4v-1174h-184v1462h207zM989 1858h107q-16 -94 -65.5 -161t-141.5 -67q-48 0 -94 17.5l-102 40.5q-57 22 -93 22q-37 0 -62.5 -24t-37.5 -62h-107q24 112 78.5 168.5t138.5 56.5q64 0 151 -41t134 -41q32 0 55.5 21
t38.5 70z" />
    <glyph glyph-name="Ograve" unicode="&#xd2;" horiz-adv-x="1556" 
d="M778 1497q213 0 371 -98.5t244 -277t86 -390.5q0 -214 -85.5 -391.5t-245 -276t-370.5 -98.5t-369.5 98t-244.5 275.5t-86 392.5q0 332 190.5 549t509.5 217zM272 731q0 -163 59.5 -304t175 -219.5t271.5 -78.5q235 0 370.5 169.5t135.5 432.5q0 260 -134 431t-374 171
q-235 0 -369.5 -172t-134.5 -430zM692 1888l176 -293h-131l-268 293h223z" />
    <glyph glyph-name="Oacute" unicode="&#xd3;" horiz-adv-x="1556" 
d="M778 1497q213 0 371 -98.5t244 -277t86 -390.5q0 -214 -85.5 -391.5t-245 -276t-370.5 -98.5t-369.5 98t-244.5 275.5t-86 392.5q0 332 190.5 549t509.5 217zM272 731q0 -163 59.5 -304t175 -219.5t271.5 -78.5q235 0 370.5 169.5t135.5 432.5q0 260 -134 431t-374 171
q-235 0 -369.5 -172t-134.5 -430zM1082 1888l-269 -293h-131l177 293h223z" />
    <glyph glyph-name="Ocircumflex" unicode="&#xd4;" horiz-adv-x="1556" 
d="M778 1497q213 0 371 -98.5t244 -277t86 -390.5q0 -214 -85.5 -391.5t-245 -276t-370.5 -98.5t-369.5 98t-244.5 275.5t-86 392.5q0 332 190.5 549t509.5 217zM272 731q0 -163 59.5 -304t175 -219.5t271.5 -78.5q235 0 370.5 169.5t135.5 432.5q0 260 -134 431t-374 171
q-235 0 -369.5 -172t-134.5 -430zM877 1888l213 -293h-173l-141 197l-143 -197h-158l211 293h191z" />
    <glyph glyph-name="Otilde" unicode="&#xd5;" horiz-adv-x="1556" 
d="M778 1497q213 0 371 -98.5t244 -277t86 -390.5q0 -214 -85.5 -391.5t-245 -276t-370.5 -98.5t-369.5 98t-244.5 275.5t-86 392.5q0 332 190.5 549t509.5 217zM272 731q0 -163 59.5 -304t175 -219.5t271.5 -78.5q235 0 370.5 169.5t135.5 432.5q0 260 -134 431t-374 171
q-235 0 -369.5 -172t-134.5 -430zM1028 1858h107q-16 -94 -65.5 -161t-141.5 -67q-48 0 -94 17.5l-102 40.5q-57 22 -93 22q-37 0 -62.5 -24t-37.5 -62h-107q24 112 78.5 168.5t138.5 56.5q64 0 151 -41t134 -41q32 0 55.5 21t38.5 70z" />
    <glyph glyph-name="Odieresis" unicode="&#xd6;" horiz-adv-x="1556" 
d="M778 1497q213 0 371 -98.5t244 -277t86 -390.5q0 -214 -85.5 -391.5t-245 -276t-370.5 -98.5t-369.5 98t-244.5 275.5t-86 392.5q0 332 190.5 549t509.5 217zM272 731q0 -163 59.5 -304t175 -219.5t271.5 -78.5q235 0 370.5 169.5t135.5 432.5q0 260 -134 431t-374 171
q-235 0 -369.5 -172t-134.5 -430zM680 1837v-213h-184v213h184zM1065 1837v-213h-184v213h184z" />
    <glyph glyph-name="multiply" unicode="&#xd7;" horiz-adv-x="1229" 
d="M245 987l370 -369l369 369l98 -98l-368 -369l370 -373l-98 -98l-371 373l-372 -373l-99 98l373 373l-371 369z" />
    <glyph glyph-name="Oslash" unicode="&#xd8;" horiz-adv-x="1556" 
d="M778 1497q147 0 264.5 -45t210.5 -135l162 178l66 -61l-168 -185q79 -99 122.5 -230.5t43.5 -287.5q0 -214 -85.5 -391.5t-245 -276t-370.5 -98.5q-133 0 -251.5 42.5t-217.5 133.5l-166 -182l-67 61l172 189q-83 101 -126.5 235t-43.5 287q0 332 190.5 549t509.5 217z
M272 731q0 -111 26 -208t77 -175l754 833h2q-68 76 -155 114t-200 38q-236 0 -370 -172.5t-134 -429.5zM1186 1108l-756 -834q66 -73 152.5 -109t195.5 -36q234 0 370 169t136 433q0 106 -25 203t-73 174z" />
    <glyph glyph-name="Ugrave" unicode="&#xd9;" horiz-adv-x="1479" 
d="M346 1462v-942q0 -179 102.5 -285t303.5 -106q189 0 285 105.5t96 285.5v942h194v-944q0 -258 -144.5 -405.5t-430.5 -147.5q-299 0 -449.5 144t-150.5 409v944h194zM655 1888l176 -293h-131l-268 293h223z" />
    <glyph glyph-name="Uacute" unicode="&#xda;" horiz-adv-x="1479" 
d="M346 1462v-942q0 -179 102.5 -285t303.5 -106q189 0 285 105.5t96 285.5v942h194v-944q0 -258 -144.5 -405.5t-430.5 -147.5q-299 0 -449.5 144t-150.5 409v944h194zM1045 1888l-269 -293h-131l177 293h223z" />
    <glyph glyph-name="Ucircumflex" unicode="&#xdb;" horiz-adv-x="1479" 
d="M346 1462v-942q0 -179 102.5 -285t303.5 -106q189 0 285 105.5t96 285.5v942h194v-944q0 -258 -144.5 -405.5t-430.5 -147.5q-299 0 -449.5 144t-150.5 409v944h194zM840 1888l213 -293h-173l-141 197l-143 -197h-158l211 293h191z" />
    <glyph glyph-name="Udieresis" unicode="&#xdc;" horiz-adv-x="1479" 
d="M346 1462v-942q0 -179 102.5 -285t303.5 -106q189 0 285 105.5t96 285.5v942h194v-944q0 -258 -144.5 -405.5t-430.5 -147.5q-299 0 -449.5 144t-150.5 409v944h194zM643 1837v-213h-184v213h184zM1028 1837v-213h-184v213h184z" />
    <glyph glyph-name="Yacute" unicode="&#xdd;" horiz-adv-x="1327" 
d="M236 1462l438 -696l428 696h221l-559 -864v-598h-195v598l-565 864h232zM973 1888l-269 -293h-131l177 293h223z" />
    <glyph glyph-name="Thorn" unicode="&#xde;" horiz-adv-x="1327" 
d="M354 1462v-233h446q207 0 328 -109.5t121 -324.5q0 -213 -117.5 -321.5t-321.5 -108.5h-456v-365h-194v1462h194zM744 528q147 0 229 64.5t82 202.5q0 136 -79 203t-232 67h-390v-537h390z" />
    <glyph glyph-name="germandbls" unicode="&#xdf;" 
d="M537 1497q172 0 298 -99t126 -260q0 -122 -52 -201.5t-161 -115.5v-4q128 -15 203 -118t75 -248q0 -212 -133 -344t-340 -132q-24 0 -49 2.5t-39 6.5v151q18 -4 28 -4q10 -2 34 -2q151 0 233 84t82 216q0 163 -78 234.5t-281 71.5h-18v139h41q124 0 197 61t73 177
q0 95 -65 163t-163 68q-134 0 -188.5 -73t-54.5 -204v-1066h-174v1081q0 185 109.5 300.5t296.5 115.5z" />
    <glyph glyph-name="agrave" unicode="&#xe0;" horiz-adv-x="1100" 
d="M564 1083q216 0 306.5 -77t90.5 -206v-611t55 -60q12 0 26 3t27 7v-135q-24 -14 -55.5 -21.5t-68.5 -7.5q-72 0 -110 40.5t-38 123.5q-69 -82 -163 -123t-210 -41q-164 0 -257 77.5t-93 219.5q0 143 91 226.5t428 125.5q114 15 154.5 44t40.5 87q0 88 -56.5 131.5
t-179.5 43.5q-129 0 -193.5 -49t-69.5 -152h-174q8 176 124 265t325 89zM258 285q0 -74 54 -115t151 -41q147 0 235 73t88 163v182q-44 -31 -114 -42t-186 -27q-116 -17 -172 -63t-56 -130zM473 1499l176 -293h-131l-269 293h224z" />
    <glyph glyph-name="aacute" unicode="&#xe1;" horiz-adv-x="1100" 
d="M564 1083q216 0 306.5 -77t90.5 -206v-611t55 -60q12 0 26 3t27 7v-135q-24 -14 -55.5 -21.5t-68.5 -7.5q-72 0 -110 40.5t-38 123.5q-69 -82 -163 -123t-210 -41q-164 0 -257 77.5t-93 219.5q0 143 91 226.5t428 125.5q114 15 154.5 44t40.5 87q0 88 -56.5 131.5
t-179.5 43.5q-129 0 -193.5 -49t-69.5 -152h-174q8 176 124 265t325 89zM258 285q0 -74 54 -115t151 -41q147 0 235 73t88 163v182q-44 -31 -114 -42t-186 -27q-116 -17 -172 -63t-56 -130zM854 1499l-269 -293h-131l177 293h223z" />
    <glyph glyph-name="acircumflex" unicode="&#xe2;" horiz-adv-x="1100" 
d="M564 1083q216 0 306.5 -77t90.5 -206v-611t55 -60q12 0 26 3t27 7v-135q-24 -14 -55.5 -21.5t-68.5 -7.5q-72 0 -110 40.5t-38 123.5q-69 -82 -163 -123t-210 -41q-164 0 -257 77.5t-93 219.5q0 143 91 226.5t428 125.5q114 15 154.5 44t40.5 87q0 88 -56.5 131.5
t-179.5 43.5q-129 0 -193.5 -49t-69.5 -152h-174q8 176 124 265t325 89zM258 285q0 -74 54 -115t151 -41q147 0 235 73t88 163v182q-44 -31 -114 -42t-186 -27q-116 -17 -172 -63t-56 -130zM654 1499l213 -293h-173l-141 197l-143 -197h-158l211 293h191z" />
    <glyph glyph-name="atilde" unicode="&#xe3;" horiz-adv-x="1100" 
d="M564 1083q216 0 306.5 -77t90.5 -206v-611t55 -60q12 0 26 3t27 7v-135q-24 -14 -55.5 -21.5t-68.5 -7.5q-72 0 -110 40.5t-38 123.5q-69 -82 -163 -123t-210 -41q-164 0 -257 77.5t-93 219.5q0 143 91 226.5t428 125.5q114 15 154.5 44t40.5 87q0 88 -56.5 131.5
t-179.5 43.5q-129 0 -193.5 -49t-69.5 -152h-174q8 176 124 265t325 89zM258 285q0 -74 54 -115t151 -41q147 0 235 73t88 163v182q-44 -31 -114 -42t-186 -27q-116 -17 -172 -63t-56 -130zM805 1468h107q-16 -93 -65.5 -160t-141.5 -67q-48 0 -94 17.5l-102 40.5
q-57 22 -93 22q-37 0 -62.5 -24t-37.5 -62h-107q24 112 78.5 168.5t138.5 56.5q64 0 151 -41t134 -41q32 0 55.5 21t38.5 69z" />
    <glyph glyph-name="adieresis" unicode="&#xe4;" horiz-adv-x="1100" 
d="M564 1083q216 0 306.5 -77t90.5 -206v-611t55 -60q12 0 26 3t27 7v-135q-24 -14 -55.5 -21.5t-68.5 -7.5q-72 0 -110 40.5t-38 123.5q-69 -82 -163 -123t-210 -41q-164 0 -257 77.5t-93 219.5q0 143 91 226.5t428 125.5q114 15 154.5 44t40.5 87q0 88 -56.5 131.5
t-179.5 43.5q-129 0 -193.5 -49t-69.5 -152h-174q8 176 124 265t325 89zM258 285q0 -74 54 -115t151 -41q147 0 235 73t88 163v182q-44 -31 -114 -42t-186 -27q-116 -17 -172 -63t-56 -130zM457 1446v-213h-184v213h184zM842 1446v-213h-184v213h184z" />
    <glyph glyph-name="aring" unicode="&#xe5;" horiz-adv-x="1100" 
d="M564 1083q216 0 306.5 -77t90.5 -206v-611t55 -60q12 0 26 3t27 7v-135q-24 -14 -55.5 -21.5t-68.5 -7.5q-72 0 -110 40.5t-38 123.5q-69 -82 -163 -123t-210 -41q-164 0 -257 77.5t-93 219.5q0 143 91 226.5t428 125.5q114 15 154.5 44t40.5 87q0 88 -56.5 131.5
t-179.5 43.5q-129 0 -193.5 -49t-69.5 -152h-174q8 176 124 265t325 89zM258 285q0 -74 54 -115t151 -41q147 0 235 73t88 163v182q-44 -31 -114 -42t-186 -27q-116 -17 -172 -63t-56 -130zM557 1614q95 0 163.5 -68t68.5 -161q0 -95 -69 -162.5t-163 -67.5q-92 0 -161.5 67
t-69.5 163q0 93 69 161t162 68zM420 1383q0 -58 38 -99t99 -41t99.5 41t38.5 99t-38.5 98.5t-100.5 40.5q-57 0 -96.5 -39.5t-39.5 -99.5z" />
    <glyph glyph-name="ae" unicode="&#xe6;" horiz-adv-x="1782" 
d="M564 1083q146 0 231.5 -39.5t122.5 -113.5q45 70 133.5 111.5t204.5 41.5q237 0 356.5 -151.5t120.5 -454.5h-777q3 -164 88.5 -256t229.5 -92q104 0 174.5 53.5t93.5 151.5h178q-39 -174 -159.5 -266.5t-298.5 -92.5q-145 0 -241.5 53t-141.5 154q-60 -105 -177 -156
t-269 -51q-170 0 -264.5 76.5t-94.5 220.5q0 122 63 197.5t190.5 105t270.5 52.5q112 18 153.5 46t41.5 93q0 80 -55 122t-184 42q-134 0 -197 -50t-68 -151h-174q8 176 124 265t325 89zM1548 631q-5 132 -82.5 215.5t-212.5 83.5q-127 0 -210.5 -79t-86.5 -220h592z
M258 285q0 -74 54 -115t151 -41q150 0 240 74t90 162v181q-36 -19 -79 -30t-127 -22q-205 -26 -267 -74t-62 -135z" />
    <glyph glyph-name="ccedilla" unicode="&#xe7;" horiz-adv-x="1100" 
d="M573 1083q194 0 315 -92t142 -272h-180q-21 103 -89.5 157t-172.5 54q-162 0 -246 -108.5t-84 -305.5q0 -176 83 -281.5t226 -105.5q127 0 200.5 68.5t90.5 189.5h178q-29 -192 -141.5 -296.5t-294.5 -110.5l-68 -89l5 -4q16 9 33.5 12t33.5 3q75 0 123.5 -41.5
t48.5 -108.5q0 -87 -71.5 -134.5t-182.5 -47.5q-42 0 -89.5 9t-98.5 30l37 90q36 -14 69 -20.5t64 -6.5q51 0 85 16.5t34 47.5q0 28 -27.5 45.5t-69.5 17.5q-22 0 -39.5 -3.5t-44.5 -12.5l-34 57l108 140h-2q-208 17 -324 159t-116 377q0 260 133.5 413.5t365.5 153.5z" />
    <glyph glyph-name="egrave" unicode="&#xe8;" horiz-adv-x="1100" 
d="M571 1083q228 0 354 -164t126 -421v-21h-793v-13q0 -151 88 -243t242 -92q116 0 184.5 54t89.5 153h172q-35 -176 -154 -268.5t-298 -92.5q-167 0 -282.5 75.5t-170.5 210t-55 275.5q0 234 141 390.5t356 156.5zM258 631h608q-8 129 -93.5 214t-213.5 85q-120 0 -205 -81
t-96 -218zM491 1499l176 -293h-131l-269 293h224z" />
    <glyph glyph-name="eacute" unicode="&#xe9;" horiz-adv-x="1100" 
d="M571 1083q228 0 354 -164t126 -421v-21h-793v-13q0 -151 88 -243t242 -92q116 0 184.5 54t89.5 153h172q-35 -176 -154 -268.5t-298 -92.5q-167 0 -282.5 75.5t-170.5 210t-55 275.5q0 234 141 390.5t356 156.5zM258 631h608q-8 129 -93.5 214t-213.5 85q-120 0 -205 -81
t-96 -218zM873 1499l-269 -293h-131l177 293h223z" />
    <glyph glyph-name="ecircumflex" unicode="&#xea;" horiz-adv-x="1100" 
d="M571 1083q228 0 354 -164t126 -421v-21h-793v-13q0 -151 88 -243t242 -92q116 0 184.5 54t89.5 153h172q-35 -176 -154 -268.5t-298 -92.5q-167 0 -282.5 75.5t-170.5 210t-55 275.5q0 234 141 390.5t356 156.5zM258 631h608q-8 129 -93.5 214t-213.5 85q-120 0 -205 -81
t-96 -218zM672 1499l213 -293h-173l-141 197l-143 -197h-158l211 293h191z" />
    <glyph glyph-name="edieresis" unicode="&#xeb;" horiz-adv-x="1100" 
d="M571 1083q228 0 354 -164t126 -421v-21h-793v-13q0 -151 88 -243t242 -92q116 0 184.5 54t89.5 153h172q-35 -176 -154 -268.5t-298 -92.5q-167 0 -282.5 75.5t-170.5 210t-55 275.5q0 234 141 390.5t356 156.5zM258 631h608q-8 129 -93.5 214t-213.5 85q-120 0 -205 -81
t-96 -218zM475 1446v-213h-184v213h184zM860 1446v-213h-184v213h184z" />
    <glyph glyph-name="igrave" unicode="&#xec;" horiz-adv-x="455" 
d="M315 1059v-1059h-174v1059h174zM147 1499l176 -293h-131l-269 293h224z" />
    <glyph glyph-name="iacute" unicode="&#xed;" horiz-adv-x="455" 
d="M315 1059v-1059h-174v1059h174zM527 1499l-269 -293h-131l177 293h223z" />
    <glyph glyph-name="icircumflex" unicode="&#xee;" horiz-adv-x="455" 
d="M315 1059v-1059h-174v1059h174zM326 1499l213 -293h-173l-141 197l-143 -197h-158l211 293h191z" />
    <glyph glyph-name="idieresis" unicode="&#xef;" horiz-adv-x="455" 
d="M315 1059v-1059h-174v1059h174zM129 1446v-213h-184v213h184zM514 1446v-213h-184v213h184z" />
    <glyph glyph-name="eth" unicode="&#xf0;" horiz-adv-x="1176" 
d="M506 1497l81 -57t77 -58l245 115l72 -76l-236 -108q175 -142 266 -339.5t91 -444.5q0 -248 -139.5 -401t-374.5 -153q-233 0 -373.5 151t-140.5 401q0 219 135 364t348 145q91 0 161.5 -27.5t123.5 -86.5h4q-47 95 -114.5 177.5t-135.5 131.5l-236 -111l-77 82l221 104h3
q-36 30 -70 53t-75 46zM258 528q0 -182 93 -290.5t237 -108.5q143 0 236.5 109t93.5 289q0 160 -89 258t-253 98q-150 0 -234 -95t-84 -260z" />
    <glyph glyph-name="ntilde" unicode="&#xf1;" 
d="M644 1083q191 0 277.5 -98t86.5 -280v-705h-174v723q0 90 -57.5 148.5t-159.5 58.5q-147 0 -229.5 -90.5t-82.5 -234.5v-605h-174v1059h164v-168h4q58 99 142.5 145.5t202.5 46.5zM823 1468h107q-16 -93 -65.5 -160t-141.5 -67q-48 0 -94 17.5l-102 40.5q-57 22 -93 22
q-37 0 -62.5 -24t-37.5 -62h-107q24 112 78.5 168.5t138.5 56.5q64 0 151 -41t134 -41q32 0 55.5 21t38.5 69z" />
    <glyph glyph-name="ograve" unicode="&#xf2;" horiz-adv-x="1176" 
d="M588 1083q240 0 377 -155t137 -400q0 -247 -140 -400t-374 -153q-230 0 -372 150.5t-142 402.5t139 403.5t375 151.5zM258 528q0 -182 93 -290.5t237 -108.5q143 0 236.5 109t93.5 290t-93 291.5t-239 110.5q-140 0 -234 -108.5t-94 -293.5zM502 1499l176 -293h-131
l-269 293h224z" />
    <glyph glyph-name="oacute" unicode="&#xf3;" horiz-adv-x="1176" 
d="M588 1083q240 0 377 -155t137 -400q0 -247 -140 -400t-374 -153q-230 0 -372 150.5t-142 402.5t139 403.5t375 151.5zM258 528q0 -182 93 -290.5t237 -108.5q143 0 236.5 109t93.5 290t-93 291.5t-239 110.5q-140 0 -234 -108.5t-94 -293.5zM891 1499l-269 -293h-131
l177 293h223z" />
    <glyph glyph-name="ocircumflex" unicode="&#xf4;" horiz-adv-x="1176" 
d="M588 1083q240 0 377 -155t137 -400q0 -247 -140 -400t-374 -153q-230 0 -372 150.5t-142 402.5t139 403.5t375 151.5zM258 528q0 -182 93 -290.5t237 -108.5q143 0 236.5 109t93.5 290t-93 291.5t-239 110.5q-140 0 -234 -108.5t-94 -293.5zM687 1499l213 -293h-173
l-141 197l-143 -197h-158l211 293h191z" />
    <glyph glyph-name="otilde" unicode="&#xf5;" horiz-adv-x="1176" 
d="M588 1083q240 0 377 -155t137 -400q0 -247 -140 -400t-374 -153q-230 0 -372 150.5t-142 402.5t139 403.5t375 151.5zM258 528q0 -182 93 -290.5t237 -108.5q143 0 236.5 109t93.5 290t-93 291.5t-239 110.5q-140 0 -234 -108.5t-94 -293.5zM837 1468h107
q-16 -93 -65.5 -160t-141.5 -67q-48 0 -94 17.5l-102 40.5q-57 22 -93 22q-37 0 -62.5 -24t-37.5 -62h-107q24 112 78.5 168.5t138.5 56.5q64 0 151 -41t134 -41q32 0 55.5 21t38.5 69z" />
    <glyph glyph-name="odieresis" unicode="&#xf6;" horiz-adv-x="1176" 
d="M588 1083q240 0 377 -155t137 -400q0 -247 -140 -400t-374 -153q-230 0 -372 150.5t-142 402.5t139 403.5t375 151.5zM258 528q0 -182 93 -290.5t237 -108.5q143 0 236.5 109t93.5 290t-93 291.5t-239 110.5q-140 0 -234 -108.5t-94 -293.5zM489 1446v-213h-184v213h184z
M874 1446v-213h-184v213h184z" />
    <glyph glyph-name="divide" unicode="&#xf7;" horiz-adv-x="1229" 
d="M614 1071q53 0 92 -38.5t39 -92.5q0 -50 -39.5 -90.5t-89.5 -40.5q-54 0 -93.5 40t-39.5 91t38 91t93 40zM1130 588v-139h-1032v139h1032zM614 227q55 0 93 -38t38 -93q0 -49 -39.5 -90t-89.5 -41q-52 0 -92.5 39t-40.5 92q0 52 38 91.5t93 39.5z" />
    <glyph glyph-name="oslash" unicode="&#xf8;" horiz-adv-x="1176" 
d="M1051 1096l55 -54l-123 -135q61 -74 90 -171.5t29 -207.5q0 -247 -140 -400t-374 -153q-101 0 -188 30.5t-150 86.5l-123 -137l-57 49l127 141q-60 73 -91.5 170t-31.5 213q0 252 139 403.5t375 151.5q108 0 192.5 -29.5t151.5 -90.5zM258 528q0 -69 14.5 -129.5
t46.5 -117.5l494 551h3q-44 48 -101 73t-129 25q-140 0 -234 -109.5t-94 -292.5zM860 772l-494 -550q44 -47 100 -70t122 -23q143 0 236.5 108t93.5 291q0 65 -14 126.5t-44 117.5z" />
    <glyph glyph-name="ugrave" unicode="&#xf9;" 
d="M305 1059v-722q0 -90 57.5 -149t158.5 -59q150 0 231.5 91.5t81.5 233.5v605h174v-1059h-164v168h-4q-58 -101 -145 -147t-200 -46q-185 0 -274.5 95.5t-89.5 282.5v706h174zM485 1499l176 -293h-131l-269 293h224z" />
    <glyph glyph-name="uacute" unicode="&#xfa;" 
d="M305 1059v-722q0 -90 57.5 -149t158.5 -59q150 0 231.5 91.5t81.5 233.5v605h174v-1059h-164v168h-4q-58 -101 -145 -147t-200 -46q-185 0 -274.5 95.5t-89.5 282.5v706h174zM867 1499l-269 -293h-131l177 293h223z" />
    <glyph glyph-name="ucircumflex" unicode="&#xfb;" 
d="M305 1059v-722q0 -90 57.5 -149t158.5 -59q150 0 231.5 91.5t81.5 233.5v605h174v-1059h-164v168h-4q-58 -101 -145 -147t-200 -46q-185 0 -274.5 95.5t-89.5 282.5v706h174zM666 1499l213 -293h-173l-141 197l-143 -197h-158l211 293h191z" />
    <glyph glyph-name="udieresis" unicode="&#xfc;" 
d="M305 1059v-722q0 -90 57.5 -149t158.5 -59q150 0 231.5 91.5t81.5 233.5v605h174v-1059h-164v168h-4q-58 -101 -145 -147t-200 -46q-185 0 -274.5 95.5t-89.5 282.5v706h174zM469 1446v-213h-184v213h184zM854 1446v-213h-184v213h184z" />
    <glyph glyph-name="yacute" unicode="&#xfd;" horiz-adv-x="1024" 
d="M213 1059l309 -866h4l297 866h185l-450 -1172q-71 -183 -136.5 -247t-181.5 -64q-32 0 -62 4t-59 14v160l50.5 -16t51.5 -8q106 0 148 106l67 170l-420 1053h197zM819 1499l-269 -293h-131l177 293h223z" />
    <glyph glyph-name="thorn" unicode="&#xfe;" horiz-adv-x="1214" 
d="M311 1462v-547h4q41 82 128.5 125t209.5 43q227 0 357.5 -156t130.5 -401q0 -246 -130 -398.5t-353 -152.5q-99 0 -193.5 41t-149.5 125h-4v-547h-174v1868h174zM305 530q0 -184 89 -292.5t245 -108.5q151 0 234 108t83 301q0 171 -87.5 281.5t-241.5 110.5
q-153 0 -237.5 -112t-84.5 -288z" />
    <glyph glyph-name="ydieresis" unicode="&#xff;" horiz-adv-x="1024" 
d="M213 1059l309 -866h4l297 866h185l-450 -1172q-71 -183 -136.5 -247t-181.5 -64q-32 0 -62 4t-59 14v160l50.5 -16t51.5 -8q106 0 148 106l67 170l-420 1053h197zM422 1446v-213h-184v213h184zM807 1446v-213h-184v213h184z" />
    <glyph glyph-name="Amacron" unicode="&#x100;" horiz-adv-x="1327" 
d="M772 1462l571 -1462h-215l-159 440h-619l-164 -440h-200l571 1462h215zM659 1286l-247 -682h495l-243 682h-5zM1016 1786v-113h-699v113h699z" />
    <glyph glyph-name="amacron" unicode="&#x101;" horiz-adv-x="1100" 
d="M564 1083q216 0 306.5 -77t90.5 -206v-611t55 -60q12 0 26 3t27 7v-135q-24 -14 -55.5 -21.5t-68.5 -7.5q-72 0 -110 40.5t-38 123.5q-69 -82 -163 -123t-210 -41q-164 0 -257 77.5t-93 219.5q0 143 91 226.5t428 125.5q114 15 154.5 44t40.5 87q0 88 -56.5 131.5
t-179.5 43.5q-129 0 -193.5 -49t-69.5 -152h-174q8 176 124 265t325 89zM258 285q0 -74 54 -115t151 -41q147 0 235 73t88 163v182q-44 -31 -114 -42t-186 -27q-116 -17 -172 -63t-56 -130zM908 1397v-113h-699v113h699z" />
    <glyph glyph-name="Abreve" unicode="&#x102;" horiz-adv-x="1327" 
d="M772 1462l571 -1462h-215l-159 440h-619l-164 -440h-200l571 1462h215zM659 1286l-247 -682h495l-243 682h-5zM346 1882h102q25 -85 82 -127.5t148 -42.5q73 0 119 36.5t83 133.5h105q-26 -138 -110.5 -210.5t-213.5 -72.5q-130 0 -211.5 68t-103.5 215z" />
    <glyph glyph-name="abreve" unicode="&#x103;" horiz-adv-x="1100" 
d="M564 1083q216 0 306.5 -77t90.5 -206v-611t55 -60q12 0 26 3t27 7v-135q-24 -14 -55.5 -21.5t-68.5 -7.5q-72 0 -110 40.5t-38 123.5q-69 -82 -163 -123t-210 -41q-164 0 -257 77.5t-93 219.5q0 143 91 226.5t428 125.5q114 15 154.5 44t40.5 87q0 88 -56.5 131.5
t-179.5 43.5q-129 0 -193.5 -49t-69.5 -152h-174q8 176 124 265t325 89zM258 285q0 -74 54 -115t151 -41q147 0 235 73t88 163v182q-44 -31 -114 -42t-186 -27q-116 -17 -172 -63t-56 -130zM238 1493h102q25 -86 82.5 -128t147.5 -42q74 0 120.5 37.5t81.5 132.5h105
q-26 -137 -110.5 -210t-213.5 -73q-136 0 -215 70t-100 213z" />
    <glyph glyph-name="Aogonek" unicode="&#x104;" horiz-adv-x="1327" 
d="M772 1462l571 -1462h-133q-84 -70 -128 -127t-44 -115q0 -41 23 -63.5t61 -22.5q35 0 67 16t54 46l66 -37q-36 -62 -90 -94.5t-132 -32.5q-89 0 -138.5 42t-49.5 114q0 67 56 135.5t173 138.5l-159 440h-619l-164 -440h-200l571 1462h215zM659 1286l-247 -682h495
l-243 682h-5z" />
    <glyph glyph-name="aogonek" unicode="&#x105;" horiz-adv-x="1100" 
d="M564 1083q216 0 306.5 -77t90.5 -206v-611t55 -60q12 0 26 3t27 7v-135q-27 -16 -59.5 -23t-84.5 -7q-69 -58 -106 -111t-37 -105q0 -41 23 -63.5t61 -22.5q35 0 67 16t54 46l66 -37q-36 -62 -90 -94.5t-132 -32.5q-89 0 -138.5 42t-49.5 114q0 68 56.5 136.5
t162.5 131.5q-32 17 -48.5 52t-16.5 93q-69 -82 -163 -123t-210 -41q-164 0 -257 77.5t-93 219.5q0 149 93.5 229.5t433.5 123.5q109 14 148 44t39 86q0 88 -56.5 131.5t-179.5 43.5q-129 0 -193.5 -49t-69.5 -152h-174q8 176 124 265t325 89zM258 285q0 -74 54 -115
t151 -41q147 0 235 73t88 163v182q-44 -31 -114 -42t-186 -27q-116 -17 -172 -63t-56 -130z" />
    <glyph glyph-name="Cacute" unicode="&#x106;" horiz-adv-x="1479" 
d="M780 1497q243 0 406.5 -126t195.5 -349h-194q-32 150 -140.5 230.5t-269.5 80.5q-232 0 -363.5 -164t-131.5 -428q0 -280 129 -446t368 -166q179 0 293.5 113.5t128.5 308.5h195q-32 -284 -197.5 -435t-435.5 -151q-314 0 -495 208t-181 554q0 341 187 555.5t505 214.5z
M1080 1888l-269 -293h-131l177 293h223z" />
    <glyph glyph-name="cacute" unicode="&#x107;" horiz-adv-x="1100" 
d="M573 1083q194 0 315 -92t142 -272h-180q-21 103 -89.5 157t-172.5 54q-162 0 -246 -108.5t-84 -305.5q0 -176 83 -281.5t226 -105.5q127 0 200.5 68.5t90.5 189.5h178q-29 -198 -149 -305t-318 -107q-231 0 -363 145.5t-132 395.5q0 260 133.5 413.5t365.5 153.5z
M879 1499l-269 -293h-131l177 293h223z" />
    <glyph glyph-name="Ccircumflex" unicode="&#x108;" horiz-adv-x="1479" 
d="M780 1497q243 0 406.5 -126t195.5 -349h-194q-32 150 -140.5 230.5t-269.5 80.5q-232 0 -363.5 -164t-131.5 -428q0 -280 129 -446t368 -166q179 0 293.5 113.5t128.5 308.5h195q-32 -284 -197.5 -435t-435.5 -151q-314 0 -495 208t-181 554q0 341 187 555.5t505 214.5z
M875 1888l213 -293h-173l-141 197l-143 -197h-158l211 293h191z" />
    <glyph glyph-name="ccircumflex" unicode="&#x109;" horiz-adv-x="1100" 
d="M573 1083q194 0 315 -92t142 -272h-180q-21 103 -89.5 157t-172.5 54q-162 0 -246 -108.5t-84 -305.5q0 -176 83 -281.5t226 -105.5q127 0 200.5 68.5t90.5 189.5h178q-29 -198 -149 -305t-318 -107q-231 0 -363 145.5t-132 395.5q0 260 133.5 413.5t365.5 153.5z
M678 1499l213 -293h-173l-141 197l-143 -197h-158l211 293h191z" />
    <glyph glyph-name="Cdotaccent" unicode="&#x10a;" horiz-adv-x="1479" 
d="M780 1497q243 0 406.5 -126t195.5 -349h-194q-32 150 -140.5 230.5t-269.5 80.5q-232 0 -363.5 -164t-131.5 -428q0 -280 129 -446t368 -166q179 0 293.5 113.5t128.5 308.5h195q-32 -284 -197.5 -435t-435.5 -151q-314 0 -495 208t-181 554q0 341 187 555.5t505 214.5z
M870 1837v-213h-184v213h184z" />
    <glyph glyph-name="cdotaccent" unicode="&#x10b;" horiz-adv-x="1100" 
d="M573 1083q194 0 315 -92t142 -272h-180q-21 103 -89.5 157t-172.5 54q-162 0 -246 -108.5t-84 -305.5q0 -176 83 -281.5t226 -105.5q127 0 200.5 68.5t90.5 189.5h178q-29 -198 -149 -305t-318 -107q-231 0 -363 145.5t-132 395.5q0 260 133.5 413.5t365.5 153.5z
M673 1450v-213h-184v213h184z" />
    <glyph glyph-name="Ccaron" unicode="&#x10c;" horiz-adv-x="1479" 
d="M780 1497q243 0 406.5 -126t195.5 -349h-194q-32 150 -140.5 230.5t-269.5 80.5q-232 0 -363.5 -164t-131.5 -428q0 -280 129 -446t368 -166q179 0 293.5 113.5t128.5 308.5h195q-32 -284 -197.5 -435t-435.5 -151q-314 0 -495 208t-181 554q0 341 187 555.5t505 214.5z
M644 1888l141 -196l144 196h158l-211 -293h-191l-213 293h172z" />
    <glyph glyph-name="ccaron" unicode="&#x10d;" horiz-adv-x="1100" 
d="M573 1083q194 0 315 -92t142 -272h-180q-21 103 -89.5 157t-172.5 54q-162 0 -246 -108.5t-84 -305.5q0 -176 83 -281.5t226 -105.5q127 0 200.5 68.5t90.5 189.5h178q-29 -198 -149 -305t-318 -107q-231 0 -363 145.5t-132 395.5q0 260 133.5 413.5t365.5 153.5z
M439 1499l141 -196l144 196h158l-211 -293h-191l-213 293h172z" />
    <glyph glyph-name="Dcaron" unicode="&#x10e;" horiz-adv-x="1442" 
d="M673 1462q332 0 511.5 -176t179.5 -521q0 -386 -177.5 -575.5t-513.5 -189.5h-513v1462h513zM685 164q219 0 351.5 143t132.5 432q0 290 -120.5 424.5t-356.5 134.5h-338v-1134h331zM511 1888l141 -196l144 196h158l-211 -293h-191l-213 293h172z" />
    <glyph glyph-name="dcaron" unicode="&#x10f;" horiz-adv-x="1214" 
d="M1077 1462v-1462h-174v143h-4q-41 -82 -130.5 -125t-207.5 -43q-222 0 -354.5 154t-132.5 403q0 245 128.5 398t353.5 153q104 0 197.5 -42t145.5 -123h4v544h174zM258 521q0 -171 88.5 -281.5t239.5 -110.5q154 0 238.5 110.5t84.5 288.5q0 181 -87 291.5t-249 110.5
q-150 0 -232.5 -109.5t-82.5 -299.5zM1456 1462l-153 -293h-123l53 293h223z" />
    <glyph glyph-name="Dcroat" unicode="&#x110;" horiz-adv-x="1442" 
d="M673 1462q332 0 511.5 -176t179.5 -521q0 -386 -177.5 -575.5t-513.5 -189.5h-513v698h-144v131h144v633h513zM793 829v-131h-439v-534h331q219 0 351.5 143t132.5 432q0 290 -120.5 424.5t-356.5 134.5h-338v-469h439z" />
    <glyph glyph-name="dcroat" unicode="&#x111;" horiz-adv-x="1225" 
d="M1077 1462v-159h176v-109h-176v-1194h-174v143h-4q-41 -82 -130.5 -125t-207.5 -43q-222 0 -354.5 154t-132.5 403q0 245 128.5 398t353.5 153q104 0 197.5 -42t145.5 -123h4v276h-348v109h348v159h174zM258 521q0 -171 88.5 -281.5t239.5 -110.5q154 0 238.5 110.5
t84.5 288.5q0 181 -87 291.5t-249 110.5q-150 0 -232.5 -109.5t-82.5 -299.5z" />
    <glyph glyph-name="Emacron" unicode="&#x112;" horiz-adv-x="1251" 
d="M1169 1462v-164h-815v-464h760v-164h-760v-506h822v-164h-1016v1462h1009zM1004 1786v-113h-699v113h699z" />
    <glyph glyph-name="emacron" unicode="&#x113;" horiz-adv-x="1100" 
d="M571 1083q228 0 354 -164t126 -421v-21h-793v-13q0 -151 88 -243t242 -92q116 0 184.5 54t89.5 153h172q-35 -176 -154 -268.5t-298 -92.5q-167 0 -282.5 75.5t-170.5 210t-55 275.5q0 234 141 390.5t356 156.5zM258 631h608q-8 129 -93.5 214t-213.5 85q-120 0 -205 -81
t-96 -218zM926 1397v-113h-699v113h699z" />
    <glyph glyph-name="Ebreve" unicode="&#x114;" horiz-adv-x="1251" 
d="M1169 1462v-164h-815v-464h760v-164h-760v-506h822v-164h-1016v1462h1009zM334 1882h102q25 -85 82 -127.5t148 -42.5q73 0 119 36.5t83 133.5h105q-26 -138 -110.5 -210.5t-213.5 -72.5q-130 0 -211.5 68t-103.5 215z" />
    <glyph glyph-name="ebreve" unicode="&#x115;" horiz-adv-x="1100" 
d="M571 1083q228 0 354 -164t126 -421v-21h-793v-13q0 -151 88 -243t242 -92q116 0 184.5 54t89.5 153h172q-35 -176 -154 -268.5t-298 -92.5q-167 0 -282.5 75.5t-170.5 210t-55 275.5q0 234 141 390.5t356 156.5zM258 631h608q-8 129 -93.5 214t-213.5 85q-120 0 -205 -81
t-96 -218zM256 1493h102q25 -86 82.5 -128t147.5 -42q74 0 120.5 37.5t81.5 132.5h105q-26 -137 -110.5 -210t-213.5 -73q-136 0 -215 70t-100 213z" />
    <glyph glyph-name="Edotaccent" unicode="&#x116;" horiz-adv-x="1251" 
d="M1169 1462v-164h-815v-464h760v-164h-760v-506h822v-164h-1016v1462h1009zM745 1837v-213h-184v213h184z" />
    <glyph glyph-name="edotaccent" unicode="&#x117;" horiz-adv-x="1100" 
d="M571 1083q228 0 354 -164t126 -421v-21h-793v-13q0 -151 88 -243t242 -92q116 0 184.5 54t89.5 153h172q-35 -176 -154 -268.5t-298 -92.5q-167 0 -282.5 75.5t-170.5 210t-55 275.5q0 234 141 390.5t356 156.5zM258 631h608q-8 129 -93.5 214t-213.5 85q-120 0 -205 -81
t-96 -218zM667 1450v-213h-184v213h184z" />
    <glyph glyph-name="Eogonek" unicode="&#x118;" horiz-adv-x="1251" 
d="M1169 1462v-164h-815v-464h760v-164h-760v-506h822v-164h-99q-75 -62 -123.5 -122t-48.5 -120q0 -40 22.5 -63t61.5 -23q32 0 63 14t58 48l66 -37q-36 -62 -90 -94.5t-132 -32.5q-88 0 -138 40.5t-50 114.5q0 70 58.5 140t170.5 135h-835v1462h1009z" />
    <glyph glyph-name="eogonek" unicode="&#x119;" horiz-adv-x="1100" 
d="M571 1083q228 0 354 -164t126 -421v-21h-793v-13q0 -151 88 -243t242 -92q114 0 183.5 54t90.5 153h172q-31 -157 -132.5 -250t-258.5 -106h-2q-83 -75 -114 -124t-31 -98q0 -43 23 -64.5t61 -21.5q33 0 64 14.5t56 46.5l66 -36q-36 -62 -90 -94.5t-131 -32.5
q-89 0 -139 41.5t-50 114.5q0 63 47 125.5t142 125.5q-239 16 -355 178.5t-116 380.5q0 233 141 390t356 157zM258 631h608q-8 129 -93.5 214t-213.5 85q-120 0 -205 -81t-96 -218z" />
    <glyph glyph-name="Ecaron" unicode="&#x11a;" horiz-adv-x="1251" 
d="M1169 1462v-164h-815v-464h760v-164h-760v-506h822v-164h-1016v1462h1009zM519 1888l141 -196l144 196h158l-211 -293h-191l-213 293h172z" />
    <glyph glyph-name="ecaron" unicode="&#x11b;" horiz-adv-x="1100" 
d="M571 1083q228 0 354 -164t126 -421v-21h-793v-13q0 -151 88 -243t242 -92q116 0 184.5 54t89.5 153h172q-35 -176 -154 -268.5t-298 -92.5q-167 0 -282.5 75.5t-170.5 210t-55 275.5q0 234 141 390.5t356 156.5zM258 631h608q-8 129 -93.5 214t-213.5 85q-120 0 -205 -81
t-96 -218zM437 1499l141 -196l144 196h158l-211 -293h-191l-213 293h172z" />
    <glyph glyph-name="Gcircumflex" unicode="&#x11c;" horiz-adv-x="1554" 
d="M785 1497q259 0 425 -124t203 -361h-194q-29 155 -142.5 238t-292.5 83q-234 0 -367.5 -173t-133.5 -447q0 -251 138 -417.5t363 -166.5q210 0 340 126.5t130 327.5v23h-468v164h641v-770h-122l-52 182q-79 -104 -202.5 -160.5t-266.5 -56.5q-299 0 -497.5 214.5
t-198.5 523.5q0 346 187.5 570t509.5 224zM887 1888l213 -293h-173l-141 197l-143 -197h-158l211 293h191z" />
    <glyph glyph-name="gcircumflex" unicode="&#x11d;" horiz-adv-x="1176" 
d="M562 1083q111 0 192 -48t125 -128h2v152h163v-980q0 -249 -120 -379t-370 -130q-182 0 -306.5 80t-132.5 231h174q4 -81 86.5 -126.5t187.5 -45.5q154 0 236 102t82 303v66h-4q-41 -88 -129.5 -140t-201.5 -52q-215 0 -343.5 148t-128.5 388q0 243 128.5 401t359.5 158z
M258 545q0 -189 79 -296.5t220 -107.5q144 0 229.5 111.5t85.5 298.5q0 170 -79 274.5t-224 104.5q-146 0 -228.5 -105t-82.5 -280zM682 1499l213 -293h-173l-141 197l-143 -197h-158l211 293h191z" />
    <glyph glyph-name="Gbreve" unicode="&#x11e;" horiz-adv-x="1554" 
d="M785 1497q259 0 425 -124t203 -361h-194q-29 155 -142.5 238t-292.5 83q-234 0 -367.5 -173t-133.5 -447q0 -251 138 -417.5t363 -166.5q210 0 340 126.5t130 327.5v23h-468v164h641v-770h-122l-52 182q-79 -104 -202.5 -160.5t-266.5 -56.5q-299 0 -497.5 214.5
t-198.5 523.5q0 346 187.5 570t509.5 224zM471 1882h102q25 -85 82 -127.5t148 -42.5q73 0 119 36.5t83 133.5h105q-26 -138 -110.5 -210.5t-213.5 -72.5q-130 0 -211.5 68t-103.5 215z" />
    <glyph glyph-name="gbreve" unicode="&#x11f;" horiz-adv-x="1176" 
d="M562 1083q111 0 192 -48t125 -128h2v152h163v-980q0 -249 -120 -379t-370 -130q-182 0 -306.5 80t-132.5 231h174q4 -81 86.5 -126.5t187.5 -45.5q154 0 236 102t82 303v66h-4q-41 -88 -129.5 -140t-201.5 -52q-215 0 -343.5 148t-128.5 388q0 243 128.5 401t359.5 158z
M258 545q0 -189 79 -296.5t220 -107.5q144 0 229.5 111.5t85.5 298.5q0 170 -79 274.5t-224 104.5q-146 0 -228.5 -105t-82.5 -280zM266 1493h102q25 -86 82.5 -128t147.5 -42q74 0 120.5 37.5t81.5 132.5h105q-26 -137 -110.5 -210t-213.5 -73q-136 0 -215 70t-100 213z
" />
    <glyph glyph-name="Gdotaccent" unicode="&#x120;" horiz-adv-x="1554" 
d="M785 1497q259 0 425 -124t203 -361h-194q-29 155 -142.5 238t-292.5 83q-234 0 -367.5 -173t-133.5 -447q0 -251 138 -417.5t363 -166.5q210 0 340 126.5t130 327.5v23h-468v164h641v-770h-122l-52 182q-79 -104 -202.5 -160.5t-266.5 -56.5q-299 0 -497.5 214.5
t-198.5 523.5q0 346 187.5 570t509.5 224zM880 1837v-213h-184v213h184z" />
    <glyph glyph-name="gdotaccent" unicode="&#x121;" horiz-adv-x="1176" 
d="M562 1083q111 0 192 -48t125 -128h2v152h163v-980q0 -249 -120 -379t-370 -130q-182 0 -306.5 80t-132.5 231h174q4 -81 86.5 -126.5t187.5 -45.5q154 0 236 102t82 303v66h-4q-41 -88 -129.5 -140t-201.5 -52q-215 0 -343.5 148t-128.5 388q0 243 128.5 401t359.5 158z
M258 545q0 -189 79 -296.5t220 -107.5q144 0 229.5 111.5t85.5 298.5q0 170 -79 274.5t-224 104.5q-146 0 -228.5 -105t-82.5 -280zM677 1450v-213h-184v213h184z" />
    <glyph glyph-name="Gcommaaccent" unicode="&#x122;" horiz-adv-x="1554" 
d="M785 1497q259 0 425 -124t203 -361h-194q-29 155 -142.5 238t-292.5 83q-234 0 -367.5 -173t-133.5 -447q0 -251 138 -417.5t363 -166.5q210 0 340 126.5t130 327.5v23h-468v164h641v-770h-122l-52 182q-79 -104 -202.5 -160.5t-266.5 -56.5q-299 0 -497.5 214.5
t-198.5 523.5q0 346 187.5 570t509.5 224zM885 -102v-163q0 -75 -50.5 -119.5t-152.5 -45.5v72q29 6 55.5 20.5t26.5 46.5v8h-106v181h227z" />
    <glyph glyph-name="gcommaaccent" unicode="&#x123;" horiz-adv-x="1176" 
d="M562 1083q111 0 192 -48t125 -128h2v152h163v-980q0 -249 -120 -379t-370 -130q-182 0 -306.5 80t-132.5 231h174q4 -81 86.5 -126.5t187.5 -45.5q154 0 236 102t82 303v66h-4q-41 -88 -129.5 -140t-201.5 -52q-215 0 -343.5 148t-128.5 388q0 243 128.5 401t359.5 158z
M258 545q0 -189 79 -296.5t220 -107.5q144 0 229.5 111.5t85.5 298.5q0 170 -79 274.5t-224 104.5q-146 0 -228.5 -105t-82.5 -280zM674 1538q-34 -8 -58 -24t-24 -45v-7h106v-180h-227v161q0 77 51.5 122t151.5 45v-72z" />
    <glyph glyph-name="Hcircumflex" unicode="&#x124;" horiz-adv-x="1479" 
d="M354 1462v-628h770v628h195v-1462h-195v670h-770v-670h-194v1462h194zM830 1888l213 -293h-173l-141 197l-143 -197h-158l211 293h191z" />
    <glyph glyph-name="hcircumflex" unicode="&#x125;" 
d="M305 1462v-559h4q38 85 129 132.5t206 47.5q191 0 277.5 -98t86.5 -280v-705h-174v723q0 90 -57.5 148.5t-159.5 58.5q-147 0 -229.5 -90.5t-82.5 -234.5v-605h-174v1462h174zM648 1888l213 -293h-173l-141 197l-143 -197h-158l211 293h191z" />
    <glyph glyph-name="Hbar" unicode="&#x126;" horiz-adv-x="1479" 
d="M354 1462v-295h770v295h195v-1462h-195v627h-770v-627h-194v1462h194zM1124 786v263h-770v-263h770z" />
    <glyph glyph-name="hbar" unicode="&#x127;" horiz-adv-x="1149" 
d="M315 1462v-159h349v-109h-349v-291h4q42 90 133.5 135t201.5 45q188 0 276 -96.5t88 -281.5v-705h-174v723q0 88 -57 147.5t-159 59.5q-150 0 -231.5 -91.5t-81.5 -233.5v-605h-174v1194h-176v109h176v159h174z" />
    <glyph glyph-name="Itilde" unicode="&#x128;" horiz-adv-x="530" 
d="M362 1462v-1462h-194v1462h194zM516 1858h107q-16 -94 -65.5 -161t-141.5 -67q-48 0 -94 17.5l-102 40.5q-57 22 -93 22q-37 0 -62.5 -24t-37.5 -62h-107q24 112 78.5 168.5t138.5 56.5q64 0 151 -41t134 -41q32 0 55.5 21t38.5 70z" />
    <glyph glyph-name="itilde" unicode="&#x129;" horiz-adv-x="455" 
d="M315 1059v-1059h-174v1059h174zM477 1468h107q-16 -93 -65.5 -160t-141.5 -67q-48 0 -94 17.5l-102 40.5q-57 22 -93 22q-37 0 -62.5 -24t-37.5 -62h-107q24 112 78.5 168.5t138.5 56.5q64 0 151 -41t134 -41q32 0 55.5 21t38.5 69z" />
    <glyph glyph-name="Imacron" unicode="&#x12a;" horiz-adv-x="530" 
d="M362 1462v-1462h-194v1462h194zM617 1786v-113h-699v113h699z" />
    <glyph glyph-name="imacron" unicode="&#x12b;" horiz-adv-x="455" 
d="M315 1059v-1059h-174v1059h174zM580 1397v-113h-699v113h699z" />
    <glyph glyph-name="Ibreve" unicode="&#x12c;" horiz-adv-x="530" 
d="M362 1462v-1462h-194v1462h194zM-53 1882h102q25 -85 82 -127.5t148 -42.5q73 0 119 36.5t83 133.5h105q-26 -138 -110.5 -210.5t-213.5 -72.5q-130 0 -211.5 68t-103.5 215z" />
    <glyph glyph-name="ibreve" unicode="&#x12d;" horiz-adv-x="455" 
d="M315 1059v-1059h-174v1059h174zM-90 1493h102q25 -86 82.5 -128t147.5 -42q74 0 120.5 37.5t81.5 132.5h105q-26 -137 -110.5 -210t-213.5 -73q-136 0 -215 70t-100 213z" />
    <glyph glyph-name="Iogonek" unicode="&#x12e;" horiz-adv-x="530" 
d="M362 1462v-1462q-86 -84 -119.5 -136.5t-33.5 -105.5q0 -38 19.5 -62t51.5 -24t60.5 15t52.5 47l58 -37q-37 -66 -82.5 -96.5t-104.5 -30.5q-83 0 -132.5 41t-49.5 118q0 74 57.5 143.5t149.5 127.5h-121v1462h194z" />
    <glyph glyph-name="iogonek" unicode="&#x12f;" horiz-adv-x="455" 
d="M315 1462v-213h-174v213h174zM315 1059v-1059q-86 -84 -119.5 -136.5t-33.5 -105.5q0 -39 19.5 -62.5t50.5 -23.5q33 0 62 15t52 47l57 -37q-34 -63 -80 -95t-106 -32q-83 0 -132.5 41t-49.5 118q0 74 57.5 143.5t149.5 127.5h-101v1059h174z" />
    <glyph glyph-name="Idotaccent" unicode="&#x130;" horiz-adv-x="530" 
d="M362 1462v-1462h-194v1462h194zM358 1837v-213h-184v213h184z" />
    <glyph glyph-name="dotlessi" unicode="&#x131;" horiz-adv-x="455" 
d="M315 1059v-1059h-174v1059h174z" />
    <glyph glyph-name="Jcircumflex" unicode="&#x134;" horiz-adv-x="1063" 
d="M903 1462v-1104q0 -173 -109 -283t-323 -110q-197 0 -311.5 104.5t-114.5 360.5v51h195v-45q0 -180 58.5 -243.5t176.5 -63.5q120 0 177 63.5t57 192.5v1077h194zM895 1888l213 -293h-173l-141 197l-143 -197h-158l211 293h191z" />
    <glyph glyph-name="jcircumflex" unicode="&#x135;" horiz-adv-x="455" 
d="M315 1059v-1201q0 -124 -63.5 -194t-190.5 -70q-24 0 -46 2t-44 7v149q14 -3 28.5 -3.5t28.5 -0.5q52 1 70.5 11.5t30.5 36t12 89.5v1174h174zM322 1499l213 -293h-173l-141 197l-143 -197h-158l211 293h191z" />
    <glyph glyph-name="Kcommaaccent" unicode="&#x136;" horiz-adv-x="1366" 
d="M354 1462v-729l742 729h252l-617 -590l641 -872h-246l-528 739l-244 -227v-512h-194v1462h194zM821 -102v-163q0 -75 -50.5 -119.5t-152.5 -45.5v72q29 6 55.5 20.5t26.5 46.5v8h-106v181h227z" />
    <glyph glyph-name="kcommaaccent" unicode="&#x137;" horiz-adv-x="1063" 
d="M315 1462v-866l484 463h233l-420 -385l451 -674h-221l-363 553l-164 -152v-401h-174v1462h174zM678 -102v-163q0 -75 -50.5 -119.5t-152.5 -45.5v72q29 6 55.5 20.5t26.5 46.5v8h-106v181h227z" />
    <glyph glyph-name="kgreenlandic" unicode="&#x138;" horiz-adv-x="1053" 
d="M305 1059v-463l483 463h234l-420 -385l451 -674h-222l-362 553l-164 -152v-401h-174v1059h174z" />
    <glyph glyph-name="Lacute" unicode="&#x139;" 
d="M354 1462v-1298h774v-164h-968v1462h194zM590 1888l-269 -293h-131l177 293h223z" />
    <glyph glyph-name="lacute" unicode="&#x13a;" horiz-adv-x="455" 
d="M315 1462v-1462h-174v1462h174zM533 1888l-269 -293h-131l177 293h223z" />
    <glyph glyph-name="Lcommaaccent" unicode="&#x13b;" 
d="M354 1462v-1298h774v-164h-968v1462h194zM745 -102v-163q0 -75 -50.5 -119.5t-152.5 -45.5v72q29 6 55.5 20.5t26.5 46.5v8h-106v181h227z" />
    <glyph glyph-name="lcommaaccent" unicode="&#x13c;" horiz-adv-x="455" 
d="M315 1462v-1462h-174v1462h174zM344 -102v-163q0 -75 -50.5 -119.5t-152.5 -45.5v72q29 6 55.5 20.5t26.5 46.5v8h-106v181h227z" />
    <glyph glyph-name="Lcaron" unicode="&#x13d;" 
d="M354 1462v-1298h774v-164h-968v1462h194zM841 1462l-153 -293h-123l53 293h223z" />
    <glyph glyph-name="lcaron" unicode="&#x13e;" horiz-adv-x="455" 
d="M315 1462v-1462h-174v1462h174zM694 1462l-153 -293h-123l53 293h223z" />
    <glyph glyph-name="Ldot" unicode="&#x13f;" 
d="M354 1462v-1298h774v-164h-968v1462h194zM829 905v-213h-184v213h184z" />
    <glyph glyph-name="ldot" unicode="&#x140;" horiz-adv-x="700" 
d="M315 1462v-1462h-174v1462h174zM645 905v-213h-184v213h184z" />
    <glyph glyph-name="Lslash" unicode="&#x141;" 
d="M354 1462v-676l467 328v-156l-467 -327v-467h774v-164h-968v492l-162 -115v155l162 115v815h194z" />
    <glyph glyph-name="lslash" unicode="&#x142;" horiz-adv-x="455" 
d="M315 1462v-520l144 115v-146l-144 -114v-797h-174v657l-143 -112v145l143 115v657h174z" />
    <glyph glyph-name="Nacute" unicode="&#x143;" horiz-adv-x="1479" 
d="M365 1462l770 -1186h4v1186h184v-1462h-213l-764 1174h-4v-1174h-184v1462h207zM1043 1888l-269 -293h-131l177 293h223z" />
    <glyph glyph-name="nacute" unicode="&#x144;" 
d="M644 1083q191 0 277.5 -98t86.5 -280v-705h-174v723q0 90 -57.5 148.5t-159.5 58.5q-147 0 -229.5 -90.5t-82.5 -234.5v-605h-174v1059h164v-168h4q58 99 142.5 145.5t202.5 46.5zM873 1499l-269 -293h-131l177 293h223z" />
    <glyph glyph-name="Ncommaaccent" unicode="&#x145;" horiz-adv-x="1479" 
d="M365 1462l770 -1186h4v1186h184v-1462h-213l-764 1174h-4v-1174h-184v1462h207zM848 -102v-163q0 -75 -50.5 -119.5t-152.5 -45.5v72q29 6 55.5 20.5t26.5 46.5v8h-106v181h227z" />
    <glyph glyph-name="ncommaaccent" unicode="&#x146;" 
d="M644 1083q191 0 277.5 -98t86.5 -280v-705h-174v723q0 90 -57.5 148.5t-159.5 58.5q-147 0 -229.5 -90.5t-82.5 -234.5v-605h-174v1059h164v-168h4q58 99 142.5 145.5t202.5 46.5zM680 -102v-163q0 -75 -50.5 -119.5t-152.5 -45.5v72q29 6 55.5 20.5t26.5 46.5v8h-106
v181h227z" />
    <glyph glyph-name="Ncaron" unicode="&#x147;" horiz-adv-x="1479" 
d="M365 1462l770 -1186h4v1186h184v-1462h-213l-764 1174h-4v-1174h-184v1462h207zM601 1888l141 -196l144 196h158l-211 -293h-191l-213 293h172z" />
    <glyph glyph-name="ncaron" unicode="&#x148;" 
d="M644 1083q191 0 277.5 -98t86.5 -280v-705h-174v723q0 90 -57.5 148.5t-159.5 58.5q-147 0 -229.5 -90.5t-82.5 -234.5v-605h-174v1059h164v-168h4q58 99 142.5 145.5t202.5 46.5zM437 1499l141 -196l144 196h158l-211 -293h-191l-213 293h172z" />
    <glyph glyph-name="Eng" unicode="&#x14a;" horiz-adv-x="1479" 
d="M365 1462l770 -1186h4v1186h184v-1553q0 -152 -79 -233.5t-250 -81.5q-38 0 -80 5t-76 14v160q48 -10 78 -12.5t57 -2.5q99 0 132.5 41.5t33.5 152.5v13l-793 1209h-4v-1174h-184v1462h207z" />
    <glyph glyph-name="eng" unicode="&#x14b;" 
d="M644 1083q191 0 277.5 -98t86.5 -280v-815q0 -142 -72.5 -219t-222.5 -77q-35 0 -75.5 5t-57.5 10v149q38 -5 63.5 -7.5t50.5 -2.5q84 0 112 41t28 128v806q0 90 -57.5 148.5t-159.5 58.5q-147 0 -229.5 -90.5t-82.5 -234.5v-605h-174v1059h164v-168h4q57 99 142 145.5
t203 46.5z" />
    <glyph glyph-name="Omacron" unicode="&#x14c;" horiz-adv-x="1556" 
d="M778 1497q213 0 371 -98.5t244 -277t86 -390.5q0 -214 -85.5 -391.5t-245 -276t-370.5 -98.5t-369.5 98t-244.5 275.5t-86 392.5q0 332 190.5 549t509.5 217zM272 731q0 -163 59.5 -304t175 -219.5t271.5 -78.5q235 0 370.5 169.5t135.5 432.5q0 260 -134 431t-374 171
q-235 0 -369.5 -172t-134.5 -430zM1131 1786v-113h-699v113h699z" />
    <glyph glyph-name="omacron" unicode="&#x14d;" horiz-adv-x="1176" 
d="M588 1083q240 0 377 -155t137 -400q0 -247 -140 -400t-374 -153q-230 0 -372 150.5t-142 402.5t139 403.5t375 151.5zM258 528q0 -182 93 -290.5t237 -108.5q143 0 236.5 109t93.5 290t-93 291.5t-239 110.5q-140 0 -234 -108.5t-94 -293.5zM940 1397v-113h-699v113h699z
" />
    <glyph glyph-name="Obreve" unicode="&#x14e;" horiz-adv-x="1556" 
d="M778 1497q213 0 371 -98.5t244 -277t86 -390.5q0 -214 -85.5 -391.5t-245 -276t-370.5 -98.5t-369.5 98t-244.5 275.5t-86 392.5q0 332 190.5 549t509.5 217zM272 731q0 -163 59.5 -304t175 -219.5t271.5 -78.5q235 0 370.5 169.5t135.5 432.5q0 260 -134 431t-374 171
q-235 0 -369.5 -172t-134.5 -430zM461 1882h102q25 -85 82 -127.5t148 -42.5q73 0 119 36.5t83 133.5h105q-26 -138 -110.5 -210.5t-213.5 -72.5q-130 0 -211.5 68t-103.5 215z" />
    <glyph glyph-name="obreve" unicode="&#x14f;" horiz-adv-x="1176" 
d="M588 1083q240 0 377 -155t137 -400q0 -247 -140 -400t-374 -153q-230 0 -372 150.5t-142 402.5t139 403.5t375 151.5zM258 528q0 -182 93 -290.5t237 -108.5q143 0 236.5 109t93.5 290t-93 291.5t-239 110.5q-140 0 -234 -108.5t-94 -293.5zM270 1493h102
q25 -86 82.5 -128t147.5 -42q74 0 120.5 37.5t81.5 132.5h105q-26 -137 -110.5 -210t-213.5 -73q-136 0 -215 70t-100 213z" />
    <glyph glyph-name="Ohungarumlaut" unicode="&#x150;" horiz-adv-x="1556" 
d="M778 1497q213 0 371 -98.5t244 -277t86 -390.5q0 -214 -85.5 -391.5t-245 -276t-370.5 -98.5t-369.5 98t-244.5 275.5t-86 392.5q0 332 190.5 549t509.5 217zM272 731q0 -163 59.5 -304t175 -219.5t271.5 -78.5q235 0 370.5 169.5t135.5 432.5q0 260 -134 431t-374 171
q-235 0 -369.5 -172t-134.5 -430zM924 1888l-246 -293h-135l166 293h215zM1243 1888l-246 -293h-135l166 293h215z" />
    <glyph glyph-name="ohungarumlaut" unicode="&#x151;" horiz-adv-x="1176" 
d="M588 1083q240 0 377 -155t137 -400q0 -247 -140 -400t-374 -153q-230 0 -372 150.5t-142 402.5t139 403.5t375 151.5zM258 528q0 -182 93 -290.5t237 -108.5q143 0 236.5 109t93.5 290t-93 291.5t-239 110.5q-140 0 -234 -108.5t-94 -293.5zM734 1499l-246 -293h-135
l166 293h215zM1053 1499l-246 -293h-135l166 293h215z" />
    <glyph glyph-name="OE" unicode="&#x152;" horiz-adv-x="2200" 
d="M763 1497q121 0 221.5 -43t139.5 -113h4v121h977v-164h-782v-464h717v-164h-717v-506h795v-164h-990v141h-4q-56 -85 -157.5 -130.5t-219.5 -45.5q-304 0 -486.5 210t-182.5 552q0 345 187.5 557.5t497.5 212.5zM272 719q0 -260 131.5 -425t358.5 -165q156 0 261 83
t105 201v642q0 91 -44.5 143t-124.5 93.5t-195 41.5q-154 0 -266.5 -80.5t-169 -223t-56.5 -310.5z" />
    <glyph glyph-name="oe" unicode="&#x153;" horiz-adv-x="1825" 
d="M556 1083q146 0 232.5 -45t133.5 -141q55 91 155 138.5t219 47.5q234 0 359 -155q112 -138 116 -386v-32.5t-2 -32.5h-768v-13q0 -146 83 -240.5t223 -94.5q105 0 181 55.5t105 151.5h166q-52 -180 -164.5 -270.5t-288.5 -90.5q-147 0 -243.5 52.5t-140.5 156.5
q-48 -107 -142.5 -158t-224.5 -51q-225 0 -353 149.5t-128 405.5q0 255 127.5 404t354.5 149zM258 509q0 -166 79 -273t218 -107q144 0 219.5 105.5t75.5 297.5q0 195 -73.5 296.5t-222.5 101.5q-138 0 -217 -114t-79 -307zM1585 631q0 138 -78 218.5t-213 80.5
q-126 0 -208.5 -79.5t-84.5 -219.5h584z" />
    <glyph glyph-name="Racute" unicode="&#x154;" horiz-adv-x="1403" 
d="M857 1462q191 0 313 -101t122 -282q0 -144 -63 -239t-191 -131v-4q111 -22 163.5 -103.5t60.5 -279.5q5 -128 24 -201t57 -121h-217q-18 24 -23.5 47.5t-10.5 64.5l-8 161q-3 113 -48.5 230t-200.5 122h-481v-625h-194v1462h697zM770 788q162 0 245 63.5t83 197.5
q0 118 -66.5 183.5t-186.5 65.5h-491v-510h416zM969 1888l-269 -293h-131l177 293h223z" />
    <glyph glyph-name="racute" unicode="&#x155;" horiz-adv-x="682" 
d="M658 1084h11t13 -1v-184q-196 0 -289.5 -104t-93.5 -321v-474h-174v1059h164v-223h4q61 126 150.5 187t214.5 61zM690 1499l-269 -293h-131l177 293h223z" />
    <glyph glyph-name="Rcommaaccent" unicode="&#x156;" horiz-adv-x="1403" 
d="M857 1462q191 0 313 -101t122 -282q0 -144 -63 -239t-191 -131v-4q111 -22 163.5 -103.5t60.5 -279.5q5 -128 24 -201t57 -121h-217q-18 24 -23.5 47.5t-10.5 64.5l-8 161q-3 113 -48.5 230t-200.5 122h-481v-625h-194v1462h697zM770 788q162 0 245 63.5t83 197.5
q0 118 -66.5 183.5t-186.5 65.5h-491v-510h416zM831 -102v-163q0 -75 -50.5 -119.5t-152.5 -45.5v72q29 6 55.5 20.5t26.5 46.5v8h-106v181h227z" />
    <glyph glyph-name="rcommaaccent" unicode="&#x157;" horiz-adv-x="682" 
d="M658 1084h11t13 -1v-184q-196 0 -289.5 -104t-93.5 -321v-474h-174v1059h164v-223h4q61 126 150.5 187t214.5 61zM327 -102v-163q0 -75 -50.5 -119.5t-152.5 -45.5v72q29 6 55.5 20.5t26.5 46.5v8h-106v181h227z" />
    <glyph glyph-name="Rcaron" unicode="&#x158;" horiz-adv-x="1403" 
d="M857 1462q191 0 313 -101t122 -282q0 -144 -63 -239t-191 -131v-4q111 -22 163.5 -103.5t60.5 -279.5q5 -128 24 -201t57 -121h-217q-18 24 -23.5 47.5t-10.5 64.5l-8 161q-3 113 -48.5 230t-200.5 122h-481v-625h-194v1462h697zM770 788q162 0 245 63.5t83 197.5
q0 118 -66.5 183.5t-186.5 65.5h-491v-510h416zM527 1888l141 -196l144 196h158l-211 -293h-191l-213 293h172z" />
    <glyph glyph-name="rcaron" unicode="&#x159;" horiz-adv-x="682" 
d="M658 1084h11t13 -1v-184q-196 0 -289.5 -104t-93.5 -321v-474h-174v1059h164v-223h4q61 126 150.5 187t214.5 61zM265 1499l141 -196l144 196h158l-211 -293h-191l-213 293h172z" />
    <glyph glyph-name="Sacute" unicode="&#x15a;" horiz-adv-x="1327" 
d="M651 1497q244 0 387 -118t152 -345h-184q-17 150 -108 224.5t-255 74.5q-156 0 -242 -64.5t-86 -184.5q0 -86 73.5 -141t396.5 -120q234 -48 350 -147t116 -275q0 -204 -166.5 -320t-405.5 -116q-265 0 -433 133t-170 383h184q2 -167 119.5 -259.5t306.5 -92.5
q177 0 274 68.5t97 197.5q0 104 -89 167t-323 108q-312 59 -418 152.5t-106 246.5q0 197 149.5 312.5t380.5 115.5zM965 1888l-269 -293h-131l177 293h223z" />
    <glyph glyph-name="sacute" unicode="&#x15b;" horiz-adv-x="1024" 
d="M483 1083q214 0 318 -83t114 -248h-174v2q-7 84 -73.5 130t-171.5 46t-165.5 -35.5t-60.5 -99.5q0 -58 53.5 -95t161.5 -60l164 -37q154 -34 234 -104.5t80 -189.5q0 -156 -121 -245t-330 -89q-203 0 -322 91t-127 268h175q3 -99 78 -152t206 -53q126 0 191 40t65 118
q0 71 -64.5 112.5t-264.5 81.5q-200 39 -281.5 110.5t-81.5 190.5q0 139 113 220t284 81zM815 1499l-269 -293h-131l177 293h223z" />
    <glyph glyph-name="Scircumflex" unicode="&#x15c;" horiz-adv-x="1327" 
d="M651 1497q244 0 387 -118t152 -345h-184q-17 150 -108 224.5t-255 74.5q-156 0 -242 -64.5t-86 -184.5q0 -86 73.5 -141t396.5 -120q234 -48 350 -147t116 -275q0 -204 -166.5 -320t-405.5 -116q-265 0 -433 133t-170 383h184q2 -167 119.5 -259.5t306.5 -92.5
q177 0 274 68.5t97 197.5q0 104 -89 167t-323 108q-312 59 -418 152.5t-106 246.5q0 197 149.5 312.5t380.5 115.5zM760 1888l213 -293h-173l-141 197l-143 -197h-158l211 293h191z" />
    <glyph glyph-name="scircumflex" unicode="&#x15d;" horiz-adv-x="1024" 
d="M483 1083q214 0 318 -83t114 -248h-174v2q-7 84 -73.5 130t-171.5 46t-165.5 -35.5t-60.5 -99.5q0 -58 53.5 -95t161.5 -60l164 -37q154 -34 234 -104.5t80 -189.5q0 -156 -121 -245t-330 -89q-203 0 -322 91t-127 268h175q3 -99 78 -152t206 -53q126 0 191 40t65 118
q0 71 -64.5 112.5t-264.5 81.5q-200 39 -281.5 110.5t-81.5 190.5q0 139 113 220t284 81zM609 1499l213 -293h-173l-141 197l-143 -197h-158l211 293h191z" />
    <glyph glyph-name="Scedilla" unicode="&#x15e;" horiz-adv-x="1327" 
d="M651 1497q244 0 387 -118t152 -345h-184q-17 150 -108 224.5t-255 74.5q-156 0 -242 -64.5t-86 -184.5q0 -86 73.5 -141t396.5 -120q234 -48 350 -147t116 -275q0 -200 -161.5 -317t-421.5 -119l-58 -74l4 -4q18 9 35 12t33 3q75 0 123.5 -41.5t48.5 -108.5
q0 -87 -71.5 -134.5t-182.5 -47.5q-42 0 -89.5 9t-98.5 30l37 90q36 -14 68.5 -20.5t63.5 -6.5q53 0 86 16.5t33 47.5q0 29 -27 46t-69 17q-22 0 -39.5 -3.5t-44.5 -12.5l-35 57l101 131q-247 28 -378.5 161t-131.5 349h184q2 -167 119.5 -259.5t306.5 -92.5q177 0 274 68.5
t97 197.5q0 104 -89 167t-323 108q-312 59 -418 152.5t-106 246.5q0 197 149.5 312.5t380.5 115.5z" />
    <glyph glyph-name="scedilla" unicode="&#x15f;" horiz-adv-x="1024" 
d="M483 1083q214 0 318 -83t114 -248h-174v2q-7 84 -73.5 130t-171.5 46t-165.5 -35.5t-60.5 -99.5q0 -58 53.5 -95t161.5 -60l164 -37q154 -34 234 -104.5t80 -189.5q0 -149 -109 -237.5t-328 -96.5l-65 -84l4 -4q18 9 35 12t32 3q76 0 124.5 -42t48.5 -108q0 -86 -71 -134
t-183 -48q-40 0 -87 8t-102 31l37 90q36 -14 69 -20.5t64 -6.5q53 0 86 16.5t33 47.5q0 27 -26.5 45t-70.5 18q-22 0 -41 -3.5t-42 -12.5l-35 57l108 140q-181 15 -278 105t-103 249h175q3 -99 78 -152t206 -53q126 0 191 40t65 118q0 71 -64.5 112.5t-264.5 81.5
q-200 39 -281.5 110.5t-81.5 190.5q0 139 113 220t284 81z" />
    <glyph glyph-name="Scaron" unicode="&#x160;" horiz-adv-x="1327" 
d="M651 1497q244 0 387 -118t152 -345h-184q-17 150 -108 224.5t-255 74.5q-156 0 -242 -64.5t-86 -184.5q0 -86 73.5 -141t396.5 -120q234 -48 350 -147t116 -275q0 -204 -166.5 -320t-405.5 -116q-265 0 -433 133t-170 383h184q2 -167 119.5 -259.5t306.5 -92.5
q177 0 274 68.5t97 197.5q0 104 -89 167t-323 108q-312 59 -418 152.5t-106 246.5q0 197 149.5 312.5t380.5 115.5zM529 1888l141 -196l144 196h158l-211 -293h-191l-213 293h172z" />
    <glyph glyph-name="scaron" unicode="&#x161;" horiz-adv-x="1024" 
d="M483 1083q214 0 318 -83t114 -248h-174v2q-7 84 -73.5 130t-171.5 46t-165.5 -35.5t-60.5 -99.5q0 -58 53.5 -95t161.5 -60l164 -37q154 -34 234 -104.5t80 -189.5q0 -156 -121 -245t-330 -89q-203 0 -322 91t-127 268h175q3 -99 78 -152t206 -53q126 0 191 40t65 118
q0 71 -64.5 112.5t-264.5 81.5q-200 39 -281.5 110.5t-81.5 190.5q0 139 113 220t284 81zM374 1499l141 -196l144 196h158l-211 -293h-191l-213 293h172z" />
    <glyph glyph-name="Tcommaaccent" unicode="&#x162;" horiz-adv-x="1176" 
d="M1174 1462v-164h-488v-1298h-194v1298h-488v164h1170zM700 -102v-163q0 -75 -50.5 -119.5t-152.5 -45.5v72q29 6 55.5 20.5t26.5 46.5v8h-106v181h227z" />
    <glyph glyph-name="tcommaaccent" unicode="&#x163;" horiz-adv-x="645" 
d="M373 1376v-317h211v-154h-211v-663q0 -79 52.5 -83.5t109.5 -4.5h49v-154h-144q-143 0 -192 51t-49 171v683h-181v154h181v317h174zM493 -102v-163q0 -75 -50.5 -119.5t-152.5 -45.5v72q29 6 55.5 20.5t26.5 46.5v8h-106v181h227z" />
    <glyph glyph-name="Tcaron" unicode="&#x164;" horiz-adv-x="1176" 
d="M1174 1462v-164h-488v-1298h-194v1298h-488v164h1170zM451 1888l141 -196l144 196h158l-211 -293h-191l-213 293h172z" />
    <glyph glyph-name="tcaron" unicode="&#x165;" horiz-adv-x="645" 
d="M373 1376v-317h211v-154h-211v-663q0 -79 52.5 -83.5t109.5 -4.5h49v-154h-144q-143 0 -192 51t-49 171v683h-181v154h181v317h174zM782 1462l-153 -293h-123l53 293h223z" />
    <glyph glyph-name="Tbar" unicode="&#x166;" horiz-adv-x="1176" 
d="M1174 1462v-164h-488v-301h295v-125h-295v-872h-194v872h-291v125h291v301h-488v164h1170z" />
    <glyph glyph-name="tbar" unicode="&#x167;" horiz-adv-x="645" 
d="M373 1376v-317h211v-154h-211v-196h194v-113h-194v-354q0 -81 56.5 -84.5t105.5 -3.5h49v-154h-144q-146 0 -193.5 51t-47.5 171v374h-170v113h170v196h-181v154h181v317h174z" />
    <glyph glyph-name="Utilde" unicode="&#x168;" horiz-adv-x="1479" 
d="M346 1462v-942q0 -179 102.5 -285t303.5 -106q189 0 285 105.5t96 285.5v942h194v-944q0 -258 -144.5 -405.5t-430.5 -147.5q-299 0 -449.5 144t-150.5 409v944h194zM991 1858h107q-16 -94 -65.5 -161t-141.5 -67q-48 0 -94 17.5l-102 40.5q-57 22 -93 22
q-37 0 -62.5 -24t-37.5 -62h-107q24 112 78.5 168.5t138.5 56.5q64 0 151 -41t134 -41q32 0 55.5 21t38.5 70z" />
    <glyph glyph-name="utilde" unicode="&#x169;" 
d="M305 1059v-722q0 -90 57.5 -149t158.5 -59q150 0 231.5 91.5t81.5 233.5v605h174v-1059h-164v168h-4q-58 -101 -145 -147t-200 -46q-185 0 -274.5 95.5t-89.5 282.5v706h174zM817 1468h107q-16 -93 -65.5 -160t-141.5 -67q-48 0 -94 17.5l-102 40.5q-57 22 -93 22
q-37 0 -62.5 -24t-37.5 -62h-107q24 112 78.5 168.5t138.5 56.5q64 0 151 -41t134 -41q32 0 55.5 21t38.5 69z" />
    <glyph glyph-name="Umacron" unicode="&#x16a;" horiz-adv-x="1479" 
d="M346 1462v-942q0 -179 102.5 -285t303.5 -106q189 0 285 105.5t96 285.5v942h194v-944q0 -258 -144.5 -405.5t-430.5 -147.5q-299 0 -449.5 144t-150.5 409v944h194zM1094 1786v-113h-699v113h699z" />
    <glyph glyph-name="umacron" unicode="&#x16b;" 
d="M305 1059v-722q0 -90 57.5 -149t158.5 -59q150 0 231.5 91.5t81.5 233.5v605h174v-1059h-164v168h-4q-58 -101 -145 -147t-200 -46q-185 0 -274.5 95.5t-89.5 282.5v706h174zM920 1397v-113h-699v113h699z" />
    <glyph glyph-name="Ubreve" unicode="&#x16c;" horiz-adv-x="1479" 
d="M346 1462v-942q0 -179 102.5 -285t303.5 -106q189 0 285 105.5t96 285.5v942h194v-944q0 -258 -144.5 -405.5t-430.5 -147.5q-299 0 -449.5 144t-150.5 409v944h194zM424 1882h102q25 -85 82 -127.5t148 -42.5q73 0 119 36.5t83 133.5h105q-26 -138 -110.5 -210.5
t-213.5 -72.5q-130 0 -211.5 68t-103.5 215z" />
    <glyph glyph-name="ubreve" unicode="&#x16d;" 
d="M305 1059v-722q0 -90 57.5 -149t158.5 -59q150 0 231.5 91.5t81.5 233.5v605h174v-1059h-164v168h-4q-58 -101 -145 -147t-200 -46q-185 0 -274.5 95.5t-89.5 282.5v706h174zM250 1493h102q25 -86 82.5 -128t147.5 -42q74 0 120.5 37.5t81.5 132.5h105
q-26 -137 -110.5 -210t-213.5 -73q-136 0 -215 70t-100 213z" />
    <glyph glyph-name="Uring" unicode="&#x16e;" horiz-adv-x="1479" 
d="M346 1462v-942q0 -179 102.5 -285t303.5 -106q189 0 285 105.5t96 285.5v942h194v-944q0 -258 -144.5 -405.5t-430.5 -147.5q-299 0 -449.5 144t-150.5 409v944h194zM741 1993q94 0 163 -68t69 -162q0 -93 -68.5 -161t-163.5 -68t-163 68t-68 161q0 96 70 163t161 67z
M604 1761q0 -60 39.5 -99.5t97.5 -39.5q61 0 99.5 40.5t38.5 98.5t-39 99t-100 41q-57 0 -96.5 -40t-39.5 -100z" />
    <glyph glyph-name="uring" unicode="&#x16f;" 
d="M305 1059v-722q0 -90 57.5 -149t158.5 -59q150 0 231.5 91.5t81.5 233.5v605h174v-1059h-164v168h-4q-58 -101 -145 -147t-200 -46q-185 0 -274.5 95.5t-89.5 282.5v706h174zM569 1624q95 0 163.5 -68t68.5 -161q0 -95 -69 -162.5t-163 -67.5q-92 0 -161.5 67t-69.5 163
q0 93 69 161t162 68zM432 1393q0 -58 38 -99t99 -41t99.5 41t38.5 99t-38.5 98.5t-100.5 40.5q-57 0 -96.5 -39.5t-39.5 -99.5z" />
    <glyph glyph-name="Uhungarumlaut" unicode="&#x170;" horiz-adv-x="1479" 
d="M346 1462v-942q0 -179 102.5 -285t303.5 -106q189 0 285 105.5t96 285.5v942h194v-944q0 -258 -144.5 -405.5t-430.5 -147.5q-299 0 -449.5 144t-150.5 409v944h194zM887 1888l-246 -293h-135l166 293h215zM1206 1888l-246 -293h-135l166 293h215z" />
    <glyph glyph-name="uhungarumlaut" unicode="&#x171;" 
d="M305 1059v-722q0 -90 57.5 -149t158.5 -59q150 0 231.5 91.5t81.5 233.5v605h174v-1059h-164v168h-4q-58 -101 -145 -147t-200 -46q-185 0 -274.5 95.5t-89.5 282.5v706h174zM713 1499l-246 -293h-135l166 293h215zM1032 1499l-246 -293h-135l166 293h215z" />
    <glyph glyph-name="Uogonek" unicode="&#x172;" horiz-adv-x="1479" 
d="M346 1462v-942q0 -179 102.5 -285t303.5 -106q189 0 285 105.5t96 285.5v942h194v-944q0 -239 -126.5 -384.5t-373.5 -164.5q-65 -57 -100 -108t-35 -103q0 -40 22.5 -63t61.5 -23q32 0 63 14t58 48l66 -37q-36 -62 -90 -94.5t-132 -32.5q-88 0 -138 40.5t-50 114.5
q0 62 44 122.5t130 117.5q-287 7 -431 150t-144 403v944h194z" />
    <glyph glyph-name="uogonek" unicode="&#x173;" 
d="M305 1059v-722q0 -90 57.5 -149t158.5 -59q150 0 231.5 91.5t81.5 233.5v605h174v-1059h-82q-72 -57 -122 -119t-50 -123q0 -43 23 -64.5t61 -21.5q33 0 64 14.5t56 46.5l66 -36q-36 -62 -90 -94.5t-131 -32.5q-88 0 -138.5 41t-50.5 115q0 68 57.5 137.5t172.5 136.5
v168h-4q-58 -101 -145 -147t-200 -46q-185 0 -274.5 95.5t-89.5 282.5v706h174z" />
    <glyph glyph-name="Wcircumflex" unicode="&#x174;" horiz-adv-x="1896" 
d="M223 1462l287 -1216h4l328 1216h211l323 -1216h4l297 1216h195l-391 -1462h-203l-334 1229h-4l-338 -1229h-203l-374 1462h198zM1045 1888l213 -293h-173l-141 197l-143 -197h-158l211 293h191z" />
    <glyph glyph-name="wcircumflex" unicode="&#x175;" horiz-adv-x="1552" 
d="M227 1059l240 -866h4l213 866h190l221 -861l2 -5h3l237 866h181l-337 -1056l-2 -3h-184l-214 837l-2 5h-3l-213 -842h-188l-340 1059h192zM879 1499l213 -293h-173l-141 197l-143 -197h-158l211 293h191z" />
    <glyph glyph-name="Ycircumflex" unicode="&#x176;" horiz-adv-x="1327" 
d="M236 1462l438 -696l428 696h221l-559 -864v-598h-195v598l-565 864h232zM768 1888l213 -293h-173l-141 197l-143 -197h-158l211 293h191z" />
    <glyph glyph-name="ycircumflex" unicode="&#x177;" horiz-adv-x="1024" 
d="M213 1059l309 -866h4l297 866h185l-450 -1172q-71 -183 -136.5 -247t-181.5 -64q-32 0 -62 4t-59 14v160l50.5 -16t51.5 -8q106 0 148 106l67 170l-420 1053h197zM619 1499l213 -293h-173l-141 197l-143 -197h-158l211 293h191z" />
    <glyph glyph-name="Ydieresis" unicode="&#x178;" horiz-adv-x="1327" 
d="M236 1462l438 -696l428 696h221l-559 -864v-598h-195v598l-565 864h232zM571 1837v-213h-184v213h184zM956 1837v-213h-184v213h184z" />
    <glyph glyph-name="Zacute" unicode="&#x179;" horiz-adv-x="1251" 
d="M1184 1462v-164l-908 -1134h932v-164h-1163v164l909 1134h-839v164h1069zM940 1888l-269 -293h-131l177 293h223z" />
    <glyph glyph-name="zacute" unicode="&#x17a;" horiz-adv-x="983" 
d="M909 1059v-119l-647 -786h676v-154h-893v133l639 772h-598v154h823zM795 1499l-269 -293h-131l177 293h223z" />
    <glyph glyph-name="Zdotaccent" unicode="&#x17b;" horiz-adv-x="1251" 
d="M1184 1462v-164l-908 -1134h932v-164h-1163v164l909 1134h-839v164h1069zM731 1837v-213h-184v213h184z" />
    <glyph glyph-name="zdotaccent" unicode="&#x17c;" horiz-adv-x="983" 
d="M909 1059v-119l-647 -786h676v-154h-893v133l639 772h-598v154h823zM589 1450v-213h-184v213h184z" />
    <glyph glyph-name="Zcaron" unicode="&#x17d;" horiz-adv-x="1251" 
d="M1184 1462v-164l-908 -1134h932v-164h-1163v164l909 1134h-839v164h1069zM501 1888l141 -196l144 196h158l-211 -293h-191l-213 293h172z" />
    <glyph glyph-name="zcaron" unicode="&#x17e;" horiz-adv-x="983" 
d="M909 1059v-119l-647 -786h676v-154h-893v133l639 772h-598v154h823zM359 1499l141 -196l144 196h158l-211 -293h-191l-213 293h172z" />
    <glyph glyph-name="florin" unicode="&#x192;" 
d="M1008 1462l-29 -153h-123q-100 0 -123 -102l-65 -287h209l-29 -140h-205l-111 -626q-51 -294 -135.5 -393t-247.5 -99h-143l29 154h69q43 3 86.5 10.5t72 39.5t38.5 74l18 86l144 754h-189l27 140h186l50 256q19 103 61 161t106.5 91.5t148.5 33.5h155z" />
    <glyph glyph-name="Aringacute" unicode="&#x1fa;" horiz-adv-x="1327" 
d="M911 1993l-213 -217h-131l135 217h209zM666 1739q80 0 137 -56t57 -139q0 -42 -18 -80t-51 -67l552 -1397h-215l-159 440h-619l-164 -440h-200l553 1397q-33 25 -51.5 65t-18.5 82q0 80 57.5 137.5t139.5 57.5zM553 1544q0 -46 32 -80t81 -34q45 0 77.5 32t32.5 82
q0 52 -32.5 82.5t-78.5 30.5q-47 0 -79.5 -33t-32.5 -80zM659 1286l-247 -681h495l-243 681h-5z" />
    <glyph glyph-name="aringacute" unicode="&#x1fb;" horiz-adv-x="1100" 
d="M856 1888l-264 -258h-129l170 258h223zM557 1579q92 0 154.5 -60.5t62.5 -150.5q0 -89 -63 -150t-154 -61q-90 0 -153.5 60.5t-63.5 150.5q0 87 62.5 149t154.5 62zM432 1368q0 -56 35.5 -91.5t89.5 -35.5q55 0 90 36t35 91t-34.5 91t-91.5 36q-55 0 -89.5 -35.5
t-34.5 -91.5zM564 1083q216 0 306.5 -77t90.5 -206v-611t55 -60q12 0 26 3t27 7v-135q-24 -14 -55.5 -21.5t-68.5 -7.5q-72 0 -110 40.5t-38 123.5q-69 -82 -163 -123t-210 -41q-164 0 -257 77.5t-93 219.5q0 149 93.5 228t433.5 125q109 14 148 44t39 86q0 88 -56.5 131.5
t-179.5 43.5q-129 0 -193.5 -49t-69.5 -152h-174q8 176 124 265t325 89zM258 285q0 -74 54 -115t151 -41q147 0 235 73t88 163v182q-44 -31 -114 -42t-186 -27q-116 -17 -172 -63t-56 -130z" />
    <glyph glyph-name="AEacute" unicode="&#x1fc;" horiz-adv-x="1896" 
d="M1821 1462v-164h-719v-464h676v-164h-676v-506h731v-164h-915v426h-504l-209 -426h-219l739 1462h1096zM489 590h429v708h-84zM1481 1888l-269 -293h-131l177 293h223z" />
    <glyph glyph-name="aeacute" unicode="&#x1fd;" horiz-adv-x="1782" 
d="M564 1083q146 0 231.5 -39.5t122.5 -113.5q45 70 133.5 111.5t204.5 41.5q237 0 356.5 -151.5t120.5 -454.5h-777q3 -164 88.5 -256t229.5 -92q104 0 174.5 53.5t93.5 151.5h178q-39 -174 -159.5 -266.5t-298.5 -92.5q-145 0 -241.5 53t-141.5 154q-60 -105 -177 -156
t-269 -51q-170 0 -264.5 76.5t-94.5 220.5q0 122 63 197.5t190.5 105t270.5 52.5q112 18 153.5 46t41.5 93q0 80 -55 122t-184 42q-134 0 -197 -50t-68 -151h-174q8 176 124 265t325 89zM1548 631q-5 132 -82.5 215.5t-212.5 83.5q-127 0 -210.5 -79t-86.5 -220h592z
M258 285q0 -74 54 -115t151 -41q150 0 240 74t90 162v181q-36 -19 -79 -30t-127 -22q-205 -26 -267 -74t-62 -135zM1252 1499l-269 -293h-131l177 293h223z" />
    <glyph glyph-name="Oslashacute" unicode="&#x1fe;" horiz-adv-x="1556" 
d="M778 1497q147 0 264.5 -45t210.5 -135l162 178l66 -61l-168 -185q79 -99 122.5 -230.5t43.5 -287.5q0 -214 -85.5 -391.5t-245 -276t-370.5 -98.5q-133 0 -251.5 42.5t-217.5 133.5l-166 -182l-67 61l172 189q-83 101 -126.5 235t-43.5 287q0 332 190.5 549t509.5 217z
M272 731q0 -111 26 -208t77 -175l754 833h2q-68 76 -155 114t-200 38q-236 0 -370 -172.5t-134 -429.5zM1186 1108l-756 -834q66 -73 152.5 -109t195.5 -36q234 0 370 169t136 433q0 106 -25 203t-73 174zM1065 1888l-269 -293h-131l177 293h223z" />
    <glyph glyph-name="oslashacute" unicode="&#x1ff;" horiz-adv-x="1176" 
d="M1051 1096l55 -54l-123 -135q61 -74 90 -171.5t29 -207.5q0 -247 -140 -400t-374 -153q-101 0 -188 30.5t-150 86.5l-123 -137l-57 49l127 141q-60 73 -91.5 170t-31.5 213q0 252 139 403.5t375 151.5q108 0 192.5 -29.5t151.5 -90.5zM258 528q0 -69 14.5 -129.5
t46.5 -117.5l494 551h3q-44 48 -101 73t-129 25q-140 0 -234 -109.5t-94 -292.5zM860 772l-494 -550q44 -47 100 -70t122 -23q143 0 236.5 108t93.5 291q0 65 -14 126.5t-44 117.5zM891 1499l-269 -293h-131l177 293h223z" />
    <glyph glyph-name="Scommaaccent" unicode="&#x218;" horiz-adv-x="1327" 
d="M651 1497q244 0 387 -118t152 -345h-184q-17 150 -108 224.5t-255 74.5q-156 0 -242 -64.5t-86 -184.5q0 -86 73.5 -141t396.5 -120q234 -48 350 -147t116 -275q0 -204 -166.5 -320t-405.5 -116q-265 0 -433 133t-170 383h184q2 -167 119.5 -259.5t306.5 -92.5
q177 0 274 68.5t97 197.5q0 104 -89 167t-323 108q-312 59 -418 152.5t-106 246.5q0 197 149.5 312.5t380.5 115.5zM780 -102v-163q0 -75 -50.5 -119.5t-152.5 -45.5v72q29 6 55.5 20.5t26.5 46.5v8h-106v181h227z" />
    <glyph glyph-name="scommaaccent" unicode="&#x219;" horiz-adv-x="1024" 
d="M483 1083q214 0 318 -83t114 -248h-174v2q-7 84 -73.5 130t-171.5 46t-165.5 -35.5t-60.5 -99.5q0 -58 53.5 -95t161.5 -60l164 -37q154 -34 234 -104.5t80 -189.5q0 -156 -121 -245t-330 -89q-203 0 -322 91t-127 268h175q3 -99 78 -152t206 -53q126 0 191 40t65 118
q0 71 -64.5 112.5t-264.5 81.5q-200 39 -281.5 110.5t-81.5 190.5q0 139 113 220t284 81zM631 -102v-163q0 -75 -50.5 -119.5t-152.5 -45.5v72q29 6 55.5 20.5t26.5 46.5v8h-106v181h227z" />
    <glyph glyph-name="uni021A" unicode="&#x21a;" horiz-adv-x="1176" 
d="M1174 1462v-164h-488v-1298h-194v1298h-488v164h1170zM700 -102v-163q0 -75 -50.5 -119.5t-152.5 -45.5v72q29 6 55.5 20.5t26.5 46.5v8h-106v181h227z" />
    <glyph glyph-name="uni021B" unicode="&#x21b;" horiz-adv-x="645" 
d="M373 1376v-317h211v-154h-211v-663q0 -79 52.5 -83.5t109.5 -4.5h49v-154h-144q-143 0 -192 51t-49 171v683h-181v154h181v317h174zM493 -102v-163q0 -75 -50.5 -119.5t-152.5 -45.5v72q29 6 55.5 20.5t26.5 46.5v8h-106v181h227z" />
    <glyph glyph-name="dotlessj" unicode="&#x237;" horiz-adv-x="455" 
d="M315 1059v-1201q0 -124 -63.5 -194t-190.5 -70q-24 0 -46 2t-44 7v149q14 -3 28.5 -3.5t28.5 -0.5q52 1 70.5 11.5t30.5 36t12 89.5v1174h174z" />
    <glyph glyph-name="circumflex" unicode="&#x2c6;" horiz-adv-x="455" 
d="M322 1499l213 -293h-173l-141 197l-143 -197h-158l211 293h191z" />
    <glyph glyph-name="caron" unicode="&#x2c7;" horiz-adv-x="455" 
d="M92 1499l141 -196l144 196h158l-211 -293h-191l-213 293h172z" />
    <glyph glyph-name="uni02C9" unicode="&#x2c9;" horiz-adv-x="455" 
d="M578 1397v-113h-699v113h699z" />
    <glyph glyph-name="breve" unicode="&#x2d8;" horiz-adv-x="455" 
d="M-92 1493h102q25 -86 82.5 -128t147.5 -42q74 0 120.5 37.5t81.5 132.5h105q-26 -137 -110.5 -210t-213.5 -73q-136 0 -215 70t-100 213z" />
    <glyph glyph-name="dotaccent" unicode="&#x2d9;" horiz-adv-x="455" 
d="M319 1450v-213h-184v213h184z" />
    <glyph glyph-name="ring" unicode="&#x2da;" horiz-adv-x="455" 
d="M227 1624q95 0 163.5 -68t68.5 -161q0 -95 -69 -162.5t-163 -67.5q-92 0 -161.5 67t-69.5 163q0 93 69 161t162 68zM90 1393q0 -58 38 -99t99 -41t99.5 41t38.5 99t-38.5 98.5t-100.5 40.5q-57 0 -96.5 -39.5t-39.5 -99.5z" />
    <glyph glyph-name="ogonek" unicode="&#x2db;" horiz-adv-x="455" 
d="M385 0h82q-82 -68 -127 -125.5t-45 -116.5q0 -40 22.5 -63t61.5 -23q32 0 63 14t58 48l65 -37q-35 -62 -89.5 -94.5t-131.5 -32.5q-88 0 -138 40.5t-50 114.5q0 71 58 140.5t171 134.5z" />
    <glyph glyph-name="tilde" unicode="&#x2dc;" horiz-adv-x="455" 
d="M477 1468h107q-16 -93 -65.5 -160t-141.5 -67q-48 0 -94 17.5l-102 40.5q-57 22 -93 22q-37 0 -62.5 -24t-37.5 -62h-107q24 112 78.5 168.5t138.5 56.5q64 0 151 -41t134 -41q32 0 55.5 21t38.5 69z" />
    <glyph glyph-name="hungarumlaut" unicode="&#x2dd;" horiz-adv-x="455" 
d="M283 1499l-246 -293h-135l166 293h215zM602 1499l-246 -293h-135l166 293h215z" />
    <glyph glyph-name="uni0374" unicode="&#x374;" horiz-adv-x="455" 
d="M393 1499l-157 -350h-138l78 350h217z" />
    <glyph glyph-name="uni0375" unicode="&#x375;" horiz-adv-x="455" 
d="M344 -66l-78 -350h-217l158 350h137z" />
    <glyph glyph-name="uni037E" unicode="&#x37e;" horiz-adv-x="569" 
d="M397 1059v-228h-227v228h227zM397 227v-229q0 -99 -54.5 -181t-170.5 -118v102q53 18 86 69.5t33 118.5v11h-121v227h227z" />
    <glyph glyph-name="tonos" unicode="&#x384;" horiz-adv-x="494" 
d="M473 1499l-154 -293h-139l68 293h225z" />
    <glyph glyph-name="dieresistonos" unicode="&#x385;" horiz-adv-x="680" 
d="M481 1499l-129 -293h-127l76 293h180zM162 1446v-213h-172v213h172zM690 1446v-213h-172v213h172z" />
    <glyph glyph-name="Alphatonos" unicode="&#x386;" horiz-adv-x="1341" 
d="M786 1462l571 -1462h-215l-159 440h-619l-164 -440h-200l571 1462h215zM673 1286l-247 -682h495l-243 682h-5zM385 1462l-154 -293h-139l68 293h225z" />
    <glyph glyph-name="anoteleia" unicode="&#x387;" horiz-adv-x="569" 
d="M397 1059v-228h-227v228h227z" />
    <glyph glyph-name="Epsilontonos" unicode="&#x388;" horiz-adv-x="1544" 
d="M1462 1462v-164h-815v-464h760v-164h-760v-506h822v-164h-1016v1462h1009zM317 1462l-154 -293h-139l68 293h225z" />
    <glyph glyph-name="Etatonos" unicode="&#x389;" horiz-adv-x="1772" 
d="M647 1462v-628h770v628h195v-1462h-195v670h-770v-670h-194v1462h194zM317 1462l-154 -293h-139l68 293h225z" />
    <glyph glyph-name="Iotatonos" unicode="&#x38a;" horiz-adv-x="807" 
d="M647 1462v-1462h-194v1462h194zM317 1462l-154 -293h-139l68 293h225z" />
    <glyph glyph-name="Omicrontonos" unicode="&#x38c;" horiz-adv-x="1772" 
d="M993 1497q213 0 371 -98.5t244 -277t86 -390.5q0 -214 -85.5 -391.5t-245 -276t-370.5 -98.5t-369.5 98t-244.5 275.5t-86 392.5q0 332 190.5 549t509.5 217zM487 731q0 -163 59.5 -304t175 -219.5t271.5 -78.5q235 0 370.5 169.5t135.5 432.5q0 260 -134 431t-374 171
q-235 0 -369.5 -172t-134.5 -430zM317 1462l-154 -293h-139l68 293h225z" />
    <glyph glyph-name="Upsilontonos" unicode="&#x38e;" horiz-adv-x="1724" 
d="M633 1462l438 -696l428 696h221l-559 -864v-598h-195v598l-565 864h232zM317 1463l-154 -293h-139l68 293h225z" />
    <glyph glyph-name="Omegatonos" unicode="&#x38f;" horiz-adv-x="1778" 
d="M1005 1497q300 0 492 -193t192 -483q0 -203 -83 -365.5t-253 -283.5v-8h359v-164h-578v147q179 123 270 294t91 381q0 222 -134.5 366.5t-355.5 144.5q-224 0 -361.5 -145t-137.5 -385q0 -206 91 -367.5t277 -288.5v-147h-579v164h350v8q-169 117 -251.5 272.5
t-82.5 356.5q0 299 195.5 497.5t498.5 198.5zM317 1462l-154 -293h-139l68 293h225z" />
    <glyph glyph-name="iotadieresistonos" unicode="&#x390;" horiz-adv-x="485" 
d="M315 1059v-836q0 -46 17 -71t56 -25q16 0 34 3t37 7v-135q-34 -15 -68.5 -21t-66.5 -6q-96 0 -139.5 54t-43.5 148v882h174zM395 1499l-129 -293h-127l76 293h180zM76 1446v-213h-172v213h172zM604 1446v-213h-172v213h172z" />
    <glyph glyph-name="Alpha" unicode="&#x391;" horiz-adv-x="1327" 
d="M772 1462l571 -1462h-215l-159 440h-619l-164 -440h-200l571 1462h215zM659 1286l-247 -682h495l-243 682h-5z" />
    <glyph glyph-name="Beta" unicode="&#x392;" horiz-adv-x="1403" 
d="M784 1462q271 0 368 -109.5t97 -248.5q0 -116 -57 -201t-160 -127v-4q135 -29 207 -123t72 -229q0 -179 -125 -299.5t-312 -120.5h-714v1462h624zM753 834q146 0 224 54.5t78 178.5q0 116 -65 173.5t-235 57.5h-401v-464h399zM849 164q119 0 193 70.5t74 191.5
q0 123 -84 183.5t-241 60.5h-437v-506h495z" />
    <glyph glyph-name="Gamma" unicode="&#x393;" horiz-adv-x="1130" 
d="M1118 1462v-164h-764v-1298h-194v1462h958z" />
    <glyph glyph-name="uni0394" unicode="&#x394;" horiz-adv-x="1327" 
d="M772 1462l565 -1462h-1345l565 1462h215zM662 1288l-408 -1124h807l-395 1124h-4z" />
    <glyph glyph-name="Epsilon" unicode="&#x395;" horiz-adv-x="1251" 
d="M1169 1462v-164h-815v-464h760v-164h-760v-506h822v-164h-1016v1462h1009z" />
    <glyph glyph-name="Zeta" unicode="&#x396;" horiz-adv-x="1251" 
d="M1184 1462v-164l-908 -1134h932v-164h-1163v164l909 1134h-839v164h1069z" />
    <glyph glyph-name="Eta" unicode="&#x397;" horiz-adv-x="1479" 
d="M354 1462v-628h770v628h195v-1462h-195v670h-770v-670h-194v1462h194z" />
    <glyph glyph-name="Theta" unicode="&#x398;" horiz-adv-x="1556" 
d="M778 1497q323 0 512 -220t189 -546q0 -332 -191 -549t-510 -217q-320 0 -510 217.5t-190 548.5q0 332 190.5 549t509.5 217zM272 731q0 -260 136 -431t370 -171q235 0 370.5 169.5t135.5 432.5q0 260 -134 431t-374 171q-235 0 -369.5 -172t-134.5 -430zM1081 836v-164
h-614v164h614z" />
    <glyph glyph-name="Iota" unicode="&#x399;" horiz-adv-x="530" 
d="M362 1462v-1462h-194v1462h194z" />
    <glyph glyph-name="Kappa" unicode="&#x39a;" horiz-adv-x="1366" 
d="M354 1462v-729l742 729h252l-617 -590l641 -872h-246l-528 739l-244 -227v-512h-194v1462h194z" />
    <glyph glyph-name="Lambda" unicode="&#x39b;" horiz-adv-x="1255" 
d="M739 1462l533 -1462h-211l-432 1268h-4l-437 -1268h-202l537 1462h216z" />
    <glyph glyph-name="Mu" unicode="&#x39c;" horiz-adv-x="1784" 
d="M430 1462l461 -1228l463 1228h266v-1462h-184v1217h-4l-457 -1217h-166l-457 1217h-4v-1217h-184v1462h266z" />
    <glyph glyph-name="Nu" unicode="&#x39d;" horiz-adv-x="1479" 
d="M365 1462l770 -1186h4v1186h184v-1462h-213l-764 1174h-4v-1174h-184v1462h207z" />
    <glyph glyph-name="Xi" unicode="&#x39e;" horiz-adv-x="1167" 
d="M1071 1462v-164h-975v164h975zM1001 834v-164h-835v164h835zM1092 164v-164h-1016v164h1016z" />
    <glyph glyph-name="Omicron" unicode="&#x39f;" horiz-adv-x="1556" 
d="M778 1497q213 0 371 -98.5t244 -277t86 -390.5q0 -214 -85.5 -391.5t-245 -276t-370.5 -98.5t-369.5 98t-244.5 275.5t-86 392.5q0 332 190.5 549t509.5 217zM272 731q0 -163 59.5 -304t175 -219.5t271.5 -78.5q235 0 370.5 169.5t135.5 432.5q0 260 -134 431t-374 171
q-235 0 -369.5 -172t-134.5 -430z" />
    <glyph glyph-name="Pi" unicode="&#x3a0;" horiz-adv-x="1464" 
d="M1305 1462v-1462h-195v1298h-756v-1298h-194v1462h1145z" />
    <glyph glyph-name="Rho" unicode="&#x3a1;" horiz-adv-x="1327" 
d="M810 1462q201 0 320 -109t119 -323q0 -215 -119 -323.5t-306 -108.5h-470v-598h-194v1462h650zM756 762q139 0 219 65.5t80 202.5q0 135 -79 201.5t-232 66.5h-390v-536h402z" />
    <glyph glyph-name="Sigma" unicode="&#x3a3;" horiz-adv-x="1249" 
d="M1145 1462v-164h-780l524 -528v-8l-553 -598h844v-164h-1094v158l565 602l-540 545v157h1034z" />
    <glyph glyph-name="Tau" unicode="&#x3a4;" horiz-adv-x="1176" 
d="M1174 1462v-164h-488v-1298h-194v1298h-488v164h1170z" />
    <glyph glyph-name="Upsilon" unicode="&#x3a5;" horiz-adv-x="1327" 
d="M236 1462l438 -696l428 696h221l-559 -864v-598h-195v598l-565 864h232z" />
    <glyph glyph-name="Phi" unicode="&#x3a6;" horiz-adv-x="1591" 
d="M893 1524v-142q298 -10 459 -167t161 -453q0 -281 -159 -439t-461 -169v-154h-195v154q-308 10 -464 160.5t-156 439.5q0 282 162.5 449.5t457.5 178.5v142h195zM272 754q0 -215 103.5 -321t324.5 -116v902q-214 -12 -321 -130t-107 -335zM891 317q218 11 323 120.5
t105 324.5q0 220 -106.5 333t-321.5 124v-902z" />
    <glyph glyph-name="Chi" unicode="&#x3a7;" horiz-adv-x="1251" 
d="M260 1462l365 -571l381 571h217l-484 -710l514 -752h-237l-393 604l-406 -604h-219l510 752l-481 710h233z" />
    <glyph glyph-name="Psi" unicode="&#x3a8;" horiz-adv-x="1694" 
d="M340 1462v-567q0 -204 93.5 -302.5t316.5 -100.5v970h194v-970q220 2 315 102.5t95 300.5v567h194v-573q0 -268 -146.5 -413t-457.5 -154v-322h-194v322q-321 2 -463 143.5t-142 422.5v574h195z" />
    <glyph glyph-name="uni03A9" unicode="&#x3a9;" horiz-adv-x="1554" 
d="M782 1497q300 0 492 -193t192 -483q0 -203 -83 -365.5t-253 -283.5v-8h359v-164h-578v147q179 123 270 294t91 381q0 222 -134.5 366.5t-355.5 144.5q-224 0 -361.5 -145t-137.5 -385q0 -206 91 -367.5t277 -288.5v-147h-579v164h350v8q-169 117 -251.5 272.5
t-82.5 356.5q0 299 195.5 497.5t498.5 198.5z" />
    <glyph glyph-name="Iotadieresis" unicode="&#x3aa;" horiz-adv-x="530" 
d="M362 1462v-1462h-194v1462h194zM166 1837v-213h-184v213h184zM551 1837v-213h-184v213h184z" />
    <glyph glyph-name="Upsilondieresis" unicode="&#x3ab;" horiz-adv-x="1327" 
d="M236 1462l438 -696l428 696h221l-559 -864v-598h-195v598l-565 864h232zM571 1837v-213h-184v213h184zM956 1837v-213h-184v213h184z" />
    <glyph glyph-name="alphatonos" unicode="&#x3ac;" horiz-adv-x="1202" 
d="M558 1083q97 0 178 -44t128 -121h4v141h174v-833q0 -41 17.5 -70t49.5 -29q21 0 37 3t30 5v-135q-26 -12 -56 -18.5t-65 -6.5q-81 0 -128 46.5t-55 133.5h-4q-42 -85 -125.5 -132.5t-207.5 -47.5q-209 0 -335 158.5t-126 398.5t128.5 395.5t355.5 155.5zM258 521
q0 -167 81 -279.5t220 -112.5q150 0 232.5 107t82.5 292q0 176 -82.5 289t-222.5 113q-148 0 -229.5 -108t-81.5 -301zM807 1499l-154 -293h-139l68 293h225z" />
    <glyph glyph-name="epsilontonos" unicode="&#x3ad;" horiz-adv-x="993" 
d="M510 1083q184 0 283 -78.5t122 -230.5h-172q-11 81 -68.5 120.5t-164.5 39.5q-109 0 -169 -38.5t-60 -119.5q0 -76 45 -112.5t117 -36.5h171v-150h-168q-92 0 -144 -40.5t-52 -127.5q0 -89 67.5 -136.5t196.5 -47.5q127 0 190 52t80 159h179q-28 -185 -147 -273t-336 -88
q-185 0 -301 86.5t-116 237.5q0 91 50 160t139 90v4q-78 27 -116 83.5t-38 135.5q0 139 115.5 225t296.5 86zM717 1499l-154 -293h-139l68 293h225z" />
    <glyph glyph-name="etatonos" unicode="&#x3ae;" horiz-adv-x="1141" 
d="M644 1083q191 0 277.5 -98t86.5 -280v-1111h-174v1129q0 90 -57.5 148.5t-159.5 58.5q-147 0 -229.5 -90.5t-82.5 -234.5v-605h-174v1059h164v-168h4q57 99 142 145.5t203 46.5zM811 1499l-154 -293h-139l68 293h225z" />
    <glyph glyph-name="iotatonos" unicode="&#x3af;" horiz-adv-x="485" 
d="M315 1059v-836q0 -46 17 -71t56 -25q16 0 34 3t37 7v-135q-34 -15 -68.5 -21t-66.5 -6q-96 0 -139.5 54t-43.5 148v882h174zM457 1499l-154 -293h-139l68 293h225z" />
    <glyph glyph-name="upsilondieresistonos" unicode="&#x3b0;" horiz-adv-x="1079" 
d="M297 1059v-677q0 -127 54 -190t185 -63q144 0 218.5 107t74.5 324q0 124 -32.5 257.5t-94.5 241.5h189q59 -110 87 -243.5t28 -251.5q0 -280 -122 -434.5t-348 -154.5q-213 0 -313 93t-100 271v720h174zM682 1499l-129 -293h-127l76 293h180zM363 1446v-213h-172v213h172
zM891 1446v-213h-172v213h172z" />
    <glyph glyph-name="alpha" unicode="&#x3b1;" horiz-adv-x="1202" 
d="M558 1083q97 0 178 -44t128 -121h4v141h174v-833q0 -41 17.5 -70t49.5 -29q21 0 37 3t30 5v-135q-26 -12 -56 -18.5t-65 -6.5q-81 0 -128 46.5t-55 133.5h-4q-42 -85 -125.5 -132.5t-207.5 -47.5q-209 0 -335 158.5t-126 398.5t128.5 395.5t355.5 155.5zM258 521
q0 -167 81 -279.5t220 -112.5q150 0 232.5 107t82.5 292q0 176 -82.5 289t-222.5 113q-148 0 -229.5 -108t-81.5 -301z" />
    <glyph glyph-name="beta" unicode="&#x3b2;" horiz-adv-x="1155" 
d="M559 1497q205 0 312.5 -96.5t107.5 -255.5q0 -100 -50.5 -176t-131.5 -101v-4q137 -28 210.5 -135.5t73.5 -277.5q0 -222 -132 -349t-314 -127q-100 0 -185.5 39.5t-138.5 124.5v-545h-174v1475q0 209 101.5 318.5t320.5 109.5zM311 518q0 -176 76.5 -282.5t216.5 -106.5
q126 0 209.5 76.5t83.5 223.5q0 169 -67 246t-192 77h-130v139h31q93 0 142 27.5t81.5 85.5t32.5 141q0 93 -62 147t-176 54q-131 0 -188.5 -74.5t-57.5 -229.5v-524z" />
    <glyph glyph-name="gamma" unicode="&#x3b3;" horiz-adv-x="952" 
d="M221 1059q82 -140 160.5 -395t103.5 -446h9q90 177 151.5 387t99.5 454h183q-44 -284 -138.5 -552.5t-250.5 -531.5v-381h-181v309q0 207 -98.5 556t-230.5 600h192z" />
    <glyph glyph-name="delta" unicode="&#x3b4;" horiz-adv-x="1135" 
d="M606 1497q80 0 162 -14.5t152 -46.5v-154q-72 31 -166.5 50.5t-148.5 19.5q-91 0 -137 -25t-46 -75q0 -37 56.5 -82.5t198.5 -131.5q221 -134 302.5 -256.5t81.5 -276.5q0 -241 -127 -385.5t-354 -144.5q-234 0 -370 145t-136 390q0 191 97.5 315.5t281.5 169.5
q-110 66 -159.5 128.5t-49.5 135.5q0 104 94.5 171t267.5 67zM258 510q0 -179 85.5 -280t236.5 -101q138 0 217.5 101t79.5 275q0 130 -76 229.5t-219 178.5q-156 -25 -240 -122t-84 -281z" />
    <glyph glyph-name="epsilon" unicode="&#x3b5;" horiz-adv-x="993" 
d="M510 1083q184 0 283 -78.5t122 -230.5h-172q-11 81 -68.5 120.5t-164.5 39.5q-109 0 -169 -38.5t-60 -119.5q0 -76 45 -112.5t117 -36.5h171v-150h-168q-92 0 -144 -40.5t-52 -127.5q0 -89 67.5 -136.5t196.5 -47.5q127 0 190 52t80 159h179q-28 -185 -147 -273t-336 -88
q-185 0 -301 86.5t-116 237.5q0 91 50 160t139 90v4q-78 27 -116 83.5t-38 135.5q0 139 115.5 225t296.5 86z" />
    <glyph glyph-name="zeta" unicode="&#x3b6;" horiz-adv-x="887" 
d="M887 1462v-139q-314 -126 -469.5 -313.5t-155.5 -450.5q0 -201 80 -304t248 -103h59q119 -9 170 -66q60 -66 60 -193q0 -64 -6 -111t-19 -97h-168q10 45 17.5 95t7.5 85q0 74 -22 104.5t-67 30.5h-83q-148 8 -231 58q-96 51 -163 172t-67 307q0 259 131.5 460.5
t380.5 311.5h-416v153h713z" />
    <glyph glyph-name="eta" unicode="&#x3b7;" horiz-adv-x="1141" 
d="M644 1083q191 0 277.5 -98t86.5 -280v-1111h-174v1129q0 90 -57.5 148.5t-159.5 58.5q-147 0 -229.5 -90.5t-82.5 -234.5v-605h-174v1059h164v-168h4q57 99 142 145.5t203 46.5z" />
    <glyph glyph-name="theta" unicode="&#x3b8;" horiz-adv-x="1094" 
d="M547 1497q236 0 354.5 -181.5t118.5 -580.5q0 -386 -117.5 -573t-355.5 -187q-237 0 -355 185.5t-118 574.5q0 387 119 574.5t354 187.5zM260 819h571q-8 261 -71.5 392.5t-214.5 131.5q-113 0 -175.5 -68.5t-86 -205.5t-23.5 -250zM547 129q156 0 214.5 112t72.5 441
h-574q4 -291 62.5 -422t224.5 -131z" />
    <glyph glyph-name="iota" unicode="&#x3b9;" horiz-adv-x="485" 
d="M315 1059v-836q0 -46 17 -71t56 -25q16 0 34 3t37 7v-135q-34 -15 -68.5 -21t-66.5 -6q-96 0 -139.5 54t-43.5 148v882h174z" />
    <glyph glyph-name="kappa" unicode="&#x3ba;" horiz-adv-x="1053" 
d="M305 1059v-490l483 490h234l-428 -408l459 -651h-222l-363 524h-2l-161 -151v-373h-174v1059h174z" />
    <glyph glyph-name="lambda" unicode="&#x3bb;" horiz-adv-x="1061" 
d="M252 1497q115 0 177 -61t116 -212l374 -1043q15 -39 29.5 -46.5t35.5 -7.5q17 0 32 2.5t33 7.5v-135q-32 -16 -57 -21.5t-52 -5.5q-69 0 -108 29t-58 84l-242 715h-4l-306 -803h-197l424 995l-103.5 267.5t-128.5 80.5q-23 0 -47.5 -3t-49.5 -9l-2 144q35 11 68 16.5
t66 5.5z" />
    <glyph glyph-name="uni03BC" unicode="&#x3bc;" 
d="M311 1059v-723q0 -91 56.5 -149t155.5 -58q148 0 229.5 92t81.5 233v605h174v-1059h-164v168h-4q-57 -93 -140 -143t-182 -50q-60 0 -115 18.5t-88 53.5h-4v-453h-174v1465h174z" />
    <glyph glyph-name="nu" unicode="&#x3bd;" horiz-adv-x="991" 
d="M223 1059l289 -881q98 205 172 443t102 438h181q-43 -254 -133 -514t-238 -545h-186l-381 1059h194z" />
    <glyph glyph-name="xi" unicode="&#x3be;" horiz-adv-x="870" 
d="M557 1497q70 0 141 -13.5t140 -39.5v-154q-70 28 -145.5 43t-134.5 15q-112 0 -182.5 -69.5t-70.5 -192.5q0 -111 79 -172.5t206 -61.5h198v-154h-207q-160 0 -240.5 -68t-80.5 -210q0 -131 80 -200.5t223 -69.5l57 2q124 0 187 -62t63 -197q0 -66 -5.5 -114t-18.5 -94
h-168q10 45 17 90.5t7 91.5q0 84 -30 110.5t-93 26.5l-61 -4q-192 0 -316 113.5t-124 293.5q0 138 68 233t202 136v4q-102 36 -161.5 120t-59.5 186q0 187 118.5 299t311.5 112z" />
    <glyph glyph-name="omicron" unicode="&#x3bf;" horiz-adv-x="1176" 
d="M588 1083q240 0 377 -155t137 -400q0 -247 -140 -400t-374 -153q-230 0 -372 150.5t-142 402.5t139 403.5t375 151.5zM258 528q0 -182 93 -290.5t237 -108.5q143 0 236.5 109t93.5 290t-93 291.5t-239 110.5q-140 0 -234 -108.5t-94 -293.5z" />
    <glyph glyph-name="pi" unicode="&#x3c0;" horiz-adv-x="1348" 
d="M1300 1059v-154h-217v-674q0 -45 19.5 -74.5t71.5 -29.5q17 0 32.5 2t38.5 8v-135q-30 -13 -67.5 -20t-71.5 -7q-101 0 -149 55t-48 149v726h-485v-905h-174v905h-209v154h1259z" />
    <glyph glyph-name="rho" unicode="&#x3c1;" horiz-adv-x="1167" 
d="M604 1083q229 0 359.5 -156.5t130.5 -400.5q0 -237 -124.5 -394t-343.5 -157q-88 0 -181 43t-144 123h-4v-547h-174v942q0 242 127 394.5t354 152.5zM293 531q0 -181 83.5 -292.5t233.5 -111.5q133 0 216 119t83 293q0 179 -80.5 285t-234.5 106q-137 0 -219 -104
t-82 -295z" />
    <glyph glyph-name="sigma1" unicode="&#x3c2;" horiz-adv-x="1051" 
d="M575 1083q172 0 281.5 -80.5t142.5 -227.5h-182q-28 77 -86.5 116t-155.5 39q-152 0 -234.5 -104.5t-82.5 -288.5q0 -188 88.5 -286.5t240.5 -98.5h68q130 0 193 -62.5t63 -196.5q0 -58 -4.5 -101.5t-19.5 -106.5h-168q9 41 16.5 88t7.5 93q0 65 -12.5 88.5t-30.5 35
t-63 10.5h-75q-226 -1 -357 144t-131 393q0 249 131 397.5t370 148.5z" />
    <glyph glyph-name="sigma" unicode="&#x3c3;" horiz-adv-x="1157" 
d="M1153 1059v-154h-246q75 -56 119.5 -158t44.5 -219q0 -228 -135.5 -390.5t-360.5 -162.5t-363 152t-138 401q0 239 151 385t393 146h535zM258 528q0 -185 89.5 -292t227.5 -107q146 0 229 107t83 292q0 123 -36.5 221t-109.5 158h-87q-209 0 -302.5 -106.5t-93.5 -272.5z
" />
    <glyph glyph-name="tau" unicode="&#x3c4;" horiz-adv-x="926" 
d="M920 1059v-154h-388v-674q0 -50 22 -77t81 -27q20 0 39.5 2.5t40.5 7.5v-135q-35 -14 -73.5 -20.5t-74.5 -6.5q-108 0 -158.5 54.5t-50.5 149.5v726h-352v154h914z" />
    <glyph glyph-name="upsilon" unicode="&#x3c5;" horiz-adv-x="1079" 
d="M297 1059v-677q0 -127 54 -190t185 -63q144 0 218.5 107t74.5 324q0 124 -32.5 257.5t-94.5 241.5h189q59 -110 87 -243.5t28 -251.5q0 -280 -122 -434.5t-348 -154.5q-213 0 -313 93t-100 271v720h174z" />
    <glyph glyph-name="phi" unicode="&#x3c6;" horiz-adv-x="1466" 
d="M819 1364v-279q274 -3 428 -152t154 -394q0 -260 -152.5 -403t-425.5 -154v-388h-178v388q-277 8 -428 149t-151 404q0 253 157.5 400.5t421.5 149.5v279h174zM819 137h10q182 0 285 107t103 295q0 174 -103 285.5t-279 111.5h-16v-799zM250 535q0 -189 101.5 -295.5
t283.5 -106.5h10v799h-18q-167 0 -272 -108.5t-105 -288.5z" />
    <glyph glyph-name="chi" unicode="&#x3c7;" horiz-adv-x="920" 
d="M217 1059l248 -508l248 508h196l-352 -668l383 -797h-203l-284 615l-271 -615h-202l387 785l-347 680h197z" />
    <glyph glyph-name="psi" unicode="&#x3c8;" horiz-adv-x="1356" 
d="M772 1362v-1233q166 12 249 119t83 312q0 117 -31.5 251.5t-95.5 247.5h182q55 -101 85 -233.5t30 -260.5q0 -264 -126.5 -418.5t-375.5 -171.5v-381h-174v381q-237 16 -352 152t-115 359v573h174v-558q0 -171 71 -265t222 -107v1233h174z" />
    <glyph glyph-name="omega" unicode="&#x3c9;" horiz-adv-x="1473" 
d="M446 1059q-96 -129 -142 -269t-46 -292q0 -178 55.5 -273.5t159.5 -95.5q88 0 132 59.5t44 170.5v466h168v-466q0 -106 44.5 -168t133.5 -62q107 0 163 96t56 275q0 164 -48.5 302t-139.5 257h201q88 -117 130 -255t42 -317q0 -223 -112 -367.5t-281 -144.5
q-97 0 -171.5 56t-105.5 166q-33 -103 -99.5 -162.5t-176.5 -59.5q-174 0 -276.5 140.5t-102.5 368.5q0 170 42.5 310.5t131.5 264.5h198z" />
    <glyph glyph-name="iotadieresis" unicode="&#x3ca;" horiz-adv-x="485" 
d="M315 1059v-836q0 -46 17 -71t56 -25q16 0 34 3t37 7v-135q-34 -15 -68.5 -21t-66.5 -6q-96 0 -139.5 54t-43.5 148v882h174zM129 1446v-213h-184v213h184zM514 1446v-213h-184v213h184z" />
    <glyph glyph-name="upsilondieresis" unicode="&#x3cb;" horiz-adv-x="1079" 
d="M297 1059v-677q0 -127 54 -190t185 -63q144 0 218.5 107t74.5 324q0 124 -32.5 257.5t-94.5 241.5h189q59 -110 87 -243.5t28 -251.5q0 -280 -122 -434.5t-348 -154.5q-213 0 -313 93t-100 271v720h174zM432 1446v-213h-184v213h184zM817 1446v-213h-184v213h184z" />
    <glyph glyph-name="omicrontonos" unicode="&#x3cc;" horiz-adv-x="1176" 
d="M588 1083q240 0 377 -155t137 -400q0 -247 -140 -400t-374 -153q-230 0 -372 150.5t-142 402.5t139 403.5t375 151.5zM258 528q0 -182 93 -290.5t237 -108.5q143 0 236.5 109t93.5 290t-93 291.5t-239 110.5q-140 0 -234 -108.5t-94 -293.5zM799 1499l-154 -293h-139
l68 293h225z" />
    <glyph glyph-name="upsilontonos" unicode="&#x3cd;" horiz-adv-x="1079" 
d="M297 1059v-677q0 -127 54 -190t185 -63q144 0 218.5 107t74.5 324q0 124 -32.5 257.5t-94.5 241.5h189q59 -110 87 -243.5t28 -251.5q0 -280 -122 -434.5t-348 -154.5q-213 0 -313 93t-100 271v720h174zM733 1499l-154 -293h-139l68 293h225z" />
    <glyph glyph-name="omegatonos" unicode="&#x3ce;" horiz-adv-x="1473" 
d="M446 1059q-96 -129 -142 -269t-46 -292q0 -178 55.5 -273.5t159.5 -95.5q88 0 132 59.5t44 170.5v466h168v-466q0 -106 44.5 -168t133.5 -62q107 0 163 96t56 275q0 164 -48.5 302t-139.5 257h201q88 -117 130 -255t42 -317q0 -223 -112 -367.5t-281 -144.5
q-97 0 -171.5 56t-105.5 166q-33 -103 -99.5 -162.5t-176.5 -59.5q-174 0 -276.5 140.5t-102.5 368.5q0 170 42.5 310.5t131.5 264.5h198zM960 1499l-154 -293h-139l68 293h225z" />
    <glyph glyph-name="uni0400" unicode="&#x400;" horiz-adv-x="1251" 
d="M1169 1462v-164h-815v-464h760v-164h-760v-506h822v-164h-1016v1462h1009zM563 1888l176 -293h-131l-268 293h223z" />
    <glyph glyph-name="afii10023" unicode="&#x401;" horiz-adv-x="1251" 
d="M1169 1462v-164h-815v-464h760v-164h-760v-506h822v-164h-1016v1462h1009zM553 1837v-213h-184v213h184zM938 1837v-213h-184v213h184z" />
    <glyph glyph-name="afii10051" unicode="&#x402;" horiz-adv-x="1528" 
d="M1174 1462v-164h-553v-563h4q56 85 146 127.5t202 42.5q223 0 353 -149.5t130 -400.5q0 -265 -161 -446t-414 -185v165h2q185 17 282 145t97 320q0 186 -83.5 287.5t-234.5 101.5q-149 0 -236 -96.5t-87 -257.5v-389h-195v1298h-422v164h1170z" />
    <glyph glyph-name="afii10052" unicode="&#x403;" horiz-adv-x="1130" 
d="M1118 1462v-164h-764v-1298h-194v1462h958zM879 1888l-269 -293h-131l177 293h223z" />
    <glyph glyph-name="afii10053" unicode="&#x404;" horiz-adv-x="1479" 
d="M778 1497q248 0 413.5 -125t192.5 -332h-194q-33 141 -142 217t-274 76q-210 0 -339 -130.5t-148 -354.5h704v-164h-708q5 -260 136 -407.5t353 -147.5q175 0 287 96.5t141 280.5h195q-37 -260 -204 -400.5t-427 -140.5q-314 0 -495 204t-181 558q0 346 185.5 558
t504.5 212z" />
    <glyph glyph-name="afii10054" unicode="&#x405;" horiz-adv-x="1327" 
d="M651 1497q244 0 387 -118t152 -345h-184q-17 150 -108 224.5t-255 74.5q-156 0 -242 -64.5t-86 -184.5q0 -86 73.5 -141t396.5 -120q234 -48 350 -147t116 -275q0 -204 -166.5 -320t-405.5 -116q-265 0 -433 133t-170 383h184q2 -167 119.5 -259.5t306.5 -92.5
q177 0 274 68.5t97 197.5q0 104 -89 167t-323 108q-312 59 -418 152.5t-106 246.5q0 197 149.5 312.5t380.5 115.5z" />
    <glyph glyph-name="afii10055" unicode="&#x406;" horiz-adv-x="530" 
d="M362 1462v-1462h-194v1462h194z" />
    <glyph glyph-name="afii10056" unicode="&#x407;" horiz-adv-x="530" 
d="M362 1462v-1462h-194v1462h194zM166 1837v-213h-184v213h184zM551 1837v-213h-184v213h184z" />
    <glyph glyph-name="afii10057" unicode="&#x408;" horiz-adv-x="1063" 
d="M903 1462v-1104q0 -173 -109 -283t-323 -110q-197 0 -311.5 104.5t-114.5 360.5v51h195v-45q0 -180 58.5 -243.5t176.5 -63.5q120 0 177 63.5t57 192.5v1077h194z" />
    <glyph glyph-name="afii10058" unicode="&#x409;" horiz-adv-x="2048" 
d="M1155 1462v-600h365q213 0 331.5 -110t118.5 -322q0 -206 -122.5 -318t-329.5 -112h-557v1294h-455l-33 -891q-8 -207 -104.5 -322.5t-247.5 -115.5q-34 0 -65 6.5t-64 20.5v166q27 -10 53 -15.5t51 -5.5q104 0 144 78t45 238l30 1009h840zM1467 164q148 0 229.5 65
t81.5 201q0 134 -81.5 201t-229.5 67h-312v-534h312z" />
    <glyph glyph-name="afii10059" unicode="&#x40a;" horiz-adv-x="2048" 
d="M354 1462v-600h619v600h194v-600h353q213 0 331.5 -110t118.5 -322q0 -206 -122.5 -318t-329.5 -112h-545v698h-619v-698h-194v1462h194zM1467 164q148 0 229.5 65t81.5 201q0 134 -81.5 201t-229.5 67h-300v-534h300z" />
    <glyph glyph-name="afii10060" unicode="&#x40b;" horiz-adv-x="1528" 
d="M1174 1462v-164h-553v-454q85 28 180.5 44.5t179.5 16.5q229 0 343 -110t114 -295v-500h-195v470q0 142 -62 204.5t-220 62.5q-77 0 -160 -15t-180 -46v-676h-195v1298h-422v164h1170z" />
    <glyph glyph-name="afii10061" unicode="&#x40c;" horiz-adv-x="1366" 
d="M354 1462v-729l742 729h252l-617 -590l641 -872h-246l-528 739l-244 -227v-512h-194v1462h194zM965 1888l-269 -293h-131l177 293h223z" />
    <glyph glyph-name="uni040D" unicode="&#x40d;" horiz-adv-x="1479" 
d="M354 1462v-1222h4l715 1222h246v-1462h-195v1227h-4l-717 -1227h-243v1462h194zM674 1888l176 -293h-131l-268 293h223z" />
    <glyph glyph-name="afii10062" unicode="&#x40e;" horiz-adv-x="1251" 
d="M211 1462l422 -893l422 893h207l-621 -1253q-62 -124 -147 -184t-195 -60q-49 0 -94 9t-78 22v164q58 -20 87 -25.5t56 -5.5q81 0 138.5 53.5t119.5 204.5l-528 1075h211zM318 1882h102q25 -85 82 -127.5t148 -42.5q73 0 119 36.5t83 133.5h105q-26 -138 -110.5 -210.5
t-213.5 -72.5q-130 0 -211.5 68t-103.5 215z" />
    <glyph glyph-name="afii10145" unicode="&#x40f;" horiz-adv-x="1479" 
d="M354 1462v-1298h770v1298h195v-1462h-481v-362h-195v362h-483v1462h194z" />
    <glyph glyph-name="afii10017" unicode="&#x410;" horiz-adv-x="1327" 
d="M772 1462l571 -1462h-215l-159 440h-619l-164 -440h-200l571 1462h215zM659 1286l-247 -682h495l-243 682h-5z" />
    <glyph glyph-name="afii10018" unicode="&#x411;" horiz-adv-x="1376" 
d="M1161 1462v-164h-807v-436h486q213 0 331.5 -110t118.5 -322q0 -206 -121 -318t-331 -112h-678v1462h1001zM785 164q148 0 229.5 65t81.5 201q0 134 -81.5 201t-229.5 67h-431v-534h431z" />
    <glyph glyph-name="afii10019" unicode="&#x412;" horiz-adv-x="1403" 
d="M784 1462q271 0 368 -109.5t97 -248.5q0 -116 -57 -201t-160 -127v-4q135 -29 207 -123t72 -229q0 -179 -125 -299.5t-312 -120.5h-714v1462h624zM753 834q146 0 224 54.5t78 178.5q0 116 -65 173.5t-235 57.5h-401v-464h399zM849 164q119 0 193 70.5t74 191.5
q0 123 -84 183.5t-241 60.5h-437v-506h495z" />
    <glyph glyph-name="afii10020" unicode="&#x413;" horiz-adv-x="1130" 
d="M1118 1462v-164h-764v-1298h-194v1462h958z" />
    <glyph glyph-name="afii10021" unicode="&#x414;" horiz-adv-x="1479" 
d="M1292 1462v-1298h162v-526h-194v362h-1047v-362h-195v526h144q100 210 145 434t45 481v383h940zM545 1073q0 -235 -39 -467.5t-131 -441.5h723v1134h-553v-225z" />
    <glyph glyph-name="afii10022" unicode="&#x415;" horiz-adv-x="1251" 
d="M1169 1462v-164h-815v-464h760v-164h-760v-506h822v-164h-1016v1462h1009z" />
    <glyph glyph-name="afii10024" unicode="&#x416;" horiz-adv-x="2054" 
d="M293 1462l637 -680v680h194v-680l641 680h240l-582 -600l648 -862h-242l-533 735l-172 -184v-551h-194v551l-172 180l-535 -731h-239l645 854l-580 608h244z" />
    <glyph glyph-name="afii10025" unicode="&#x417;" horiz-adv-x="1339" 
d="M700 1497q233 0 366.5 -109.5t133.5 -294.5q0 -102 -66.5 -189t-175.5 -122v-6q134 -25 213.5 -123.5t79.5 -236.5q0 -199 -161 -325t-412 -126q-277 0 -435.5 132.5t-158.5 383.5h186q7 -179 116 -268.5t300 -89.5q168 0 270.5 82t102.5 215q0 85 -34 142t-108.5 89.5
t-255.5 32.5h-53t-49 -2v160q21 -2 43 -2.5t45 0.5q70 0 124 4t113.5 31.5t91.5 80.5t32 127q0 123 -81 188.5t-233 65.5q-172 0 -261.5 -74t-104.5 -224h-187q9 220 158.5 339t400.5 119z" />
    <glyph glyph-name="afii10026" unicode="&#x418;" horiz-adv-x="1479" 
d="M354 1462v-1222h4l715 1222h246v-1462h-195v1227h-4l-717 -1227h-243v1462h194z" />
    <glyph glyph-name="afii10027" unicode="&#x419;" horiz-adv-x="1479" 
d="M354 1462v-1222h4l715 1222h246v-1462h-195v1227h-4l-717 -1227h-243v1462h194zM430 1882h102q25 -85 82 -127.5t148 -42.5q73 0 119 36.5t83 133.5h105q-26 -138 -110.5 -210.5t-213.5 -72.5q-130 0 -211.5 68t-103.5 215z" />
    <glyph glyph-name="afii10028" unicode="&#x41a;" horiz-adv-x="1366" 
d="M354 1462v-729l742 729h252l-617 -590l641 -872h-246l-528 739l-244 -227v-512h-194v1462h194z" />
    <glyph glyph-name="afii10029" unicode="&#x41b;" horiz-adv-x="1397" 
d="M1231 1462v-1462h-195v1294h-530l-33 -891q-8 -207 -104.5 -322.5t-247.5 -115.5q-34 0 -65 6.5t-64 20.5v166q27 -10 53 -15.5t51 -5.5q104 0 144 78t45 238l30 1009h916z" />
    <glyph glyph-name="afii10030" unicode="&#x41c;" horiz-adv-x="1784" 
d="M430 1462l461 -1228l463 1228h266v-1462h-184v1217h-4l-457 -1217h-166l-457 1217h-4v-1217h-184v1462h266z" />
    <glyph glyph-name="afii10031" unicode="&#x41d;" horiz-adv-x="1479" 
d="M354 1462v-628h770v628h195v-1462h-195v670h-770v-670h-194v1462h194z" />
    <glyph glyph-name="afii10032" unicode="&#x41e;" horiz-adv-x="1556" 
d="M778 1497q213 0 371 -98.5t244 -277t86 -390.5q0 -214 -85.5 -391.5t-245 -276t-370.5 -98.5t-369.5 98t-244.5 275.5t-86 392.5q0 332 190.5 549t509.5 217zM272 731q0 -163 59.5 -304t175 -219.5t271.5 -78.5q235 0 370.5 169.5t135.5 432.5q0 260 -134 431t-374 171
q-235 0 -369.5 -172t-134.5 -430z" />
    <glyph glyph-name="afii10033" unicode="&#x41f;" horiz-adv-x="1479" 
d="M1319 1462v-1462h-195v1298h-770v-1298h-194v1462h1159z" />
    <glyph glyph-name="afii10034" unicode="&#x420;" horiz-adv-x="1327" 
d="M810 1462q201 0 320 -109t119 -323q0 -215 -119 -323.5t-306 -108.5h-470v-598h-194v1462h650zM756 762q139 0 219 65.5t80 202.5q0 135 -79 201.5t-232 66.5h-390v-536h402z" />
    <glyph glyph-name="afii10035" unicode="&#x421;" horiz-adv-x="1479" 
d="M780 1497q243 0 406.5 -126t195.5 -349h-194q-32 150 -140.5 230.5t-269.5 80.5q-232 0 -363.5 -164t-131.5 -428q0 -280 129 -446t368 -166q179 0 293.5 113.5t128.5 308.5h195q-32 -284 -197.5 -435t-435.5 -151q-314 0 -495 208t-181 554q0 341 187 555.5t505 214.5z
" />
    <glyph glyph-name="afii10036" unicode="&#x422;" horiz-adv-x="1176" 
d="M1174 1462v-164h-488v-1298h-194v1298h-488v164h1170z" />
    <glyph glyph-name="afii10037" unicode="&#x423;" horiz-adv-x="1251" 
d="M211 1462l422 -893l422 893h207l-621 -1253q-62 -124 -147 -184t-195 -60q-49 0 -94 9t-78 22v164q58 -20 87 -25.5t56 -5.5q81 0 138.5 53.5t119.5 204.5l-528 1075h211z" />
    <glyph glyph-name="afii10038" unicode="&#x424;" horiz-adv-x="1593" 
d="M895 1462v-155q291 -10 463 -166t172 -406q0 -243 -165 -393t-470 -168v-174h-195v174q-283 6 -460 158t-177 403q0 250 177 406t460 166v155h195zM256 735q0 -177 112 -282t332 -121v817q-207 -8 -325.5 -118t-118.5 -296zM895 332q215 10 328.5 116t113.5 287
q0 182 -114.5 292.5t-327.5 121.5v-817z" />
    <glyph glyph-name="afii10039" unicode="&#x425;" horiz-adv-x="1251" 
d="M260 1462l365 -571l381 571h217l-484 -710l514 -752h-237l-393 604l-406 -604h-219l510 752l-481 710h233z" />
    <glyph glyph-name="afii10040" unicode="&#x426;" horiz-adv-x="1479" 
d="M354 1462v-1298h744v1298h194v-1298h162v-526h-194v362h-1100v1462h194z" />
    <glyph glyph-name="afii10041" unicode="&#x427;" horiz-adv-x="1370" 
d="M293 1462v-411q0 -141 77 -212t255 -71q75 0 172 11.5t219 37.5v645h194v-1462h-194v649q-113 -23 -214.5 -37t-186.5 -14q-258 0 -387.5 113t-129.5 311v440h195z" />
    <glyph glyph-name="afii10042" unicode="&#x428;" horiz-adv-x="2198" 
d="M354 1462v-1298h645v1298h195v-1298h645v1298h195v-1462h-1874v1462h194z" />
    <glyph glyph-name="afii10043" unicode="&#x429;" horiz-adv-x="2220" 
d="M354 1462v-1298h645v1298h195v-1298h645v1298h195v-1298h161v-526h-194v362h-1841v1462h194z" />
    <glyph glyph-name="afii10044" unicode="&#x42a;" horiz-adv-x="1645" 
d="M672 1462v-600h446q208 0 328.5 -109.5t120.5 -322.5q0 -201 -121.5 -315.5t-330.5 -114.5h-638v1298h-473v164h668zM1062 164q147 0 228.5 65t81.5 201q0 134 -81.5 201t-228.5 67h-390v-534h390z" />
    <glyph glyph-name="afii10045" unicode="&#x42b;" horiz-adv-x="1784" 
d="M354 1462v-600h447q208 0 328 -109.5t120 -322.5q0 -206 -122.5 -318t-329.5 -112h-637v1462h194zM1624 1462v-1462h-194v1462h194zM744 164q148 0 229.5 65t81.5 201q0 134 -81.5 201t-229.5 67h-390v-534h390z" />
    <glyph glyph-name="afii10046" unicode="&#x42c;" horiz-adv-x="1327" 
d="M354 1462v-600h447q208 0 328 -109.5t120 -322.5q0 -206 -122.5 -318t-329.5 -112h-637v1462h194zM744 164q148 0 229.5 65t81.5 201q0 134 -81.5 201t-229.5 67h-390v-534h390z" />
    <glyph glyph-name="afii10047" unicode="&#x42d;" horiz-adv-x="1479" 
d="M721 1497q318 0 494 -209.5t176 -560.5q0 -340 -189.5 -551t-485.5 -211q-263 0 -430 141.5t-198 399.5h195q28 -183 139 -279t300 -96q196 0 329.5 144t144.5 409h-709v164h701q-22 231 -143.5 357t-319.5 126q-154 0 -268 -75t-164 -216h-195q52 216 224 336.5
t399 120.5z" />
    <glyph glyph-name="afii10048" unicode="&#x42e;" horiz-adv-x="2048" 
d="M1300 1497q311 0 490.5 -215.5t179.5 -550.5q0 -337 -180.5 -551.5t-489.5 -214.5q-286 0 -465.5 190t-199.5 523h-281v-678h-194v1462h194v-620h283q34 304 210 479.5t453 175.5zM823 731q0 -263 125 -432.5t352 -169.5q228 0 352 167.5t124 434.5t-123 434.5
t-355 167.5q-224 0 -349.5 -168.5t-125.5 -433.5z" />
    <glyph glyph-name="afii10049" unicode="&#x42f;" horiz-adv-x="1362" 
d="M1202 1462v-1462h-194v625h-301l-481 -623l-2 -2h-236l488 633q-175 23 -269 127.5t-94 281.5q0 204 125 312t326 108h638zM307 1042q0 -131 78.5 -192.5t223.5 -61.5h399v510h-422q-128 0 -203.5 -66t-75.5 -190z" />
    <glyph glyph-name="afii10065" unicode="&#x430;" horiz-adv-x="1100" 
d="M564 1083q216 0 306.5 -77t90.5 -206v-611t55 -60q12 0 26 3t27 7v-135q-24 -14 -55.5 -21.5t-68.5 -7.5q-72 0 -110 40.5t-38 123.5q-69 -82 -163 -123t-210 -41q-164 0 -257 77.5t-93 219.5q0 143 91 226.5t428 125.5q114 15 154.5 44t40.5 87q0 88 -56.5 131.5
t-179.5 43.5q-129 0 -193.5 -49t-69.5 -152h-174q8 176 124 265t325 89zM258 285q0 -74 54 -115t151 -41q147 0 235 73t88 163v182q-44 -31 -114 -42t-186 -27q-116 -17 -172 -63t-56 -130z" />
    <glyph glyph-name="afii10066" unicode="&#x431;" horiz-adv-x="1176" 
d="M1044 1462q-16 -97 -89 -149.5t-270 -71.5q-198 -19 -301 -109.5t-146 -314.5h6q62 114 166.5 176t233.5 62q207 0 332.5 -140t125.5 -385q0 -252 -142 -403.5t-370 -151.5q-242 0 -377 153t-135 441q0 397 129.5 583t384.5 226l144 22q72 11 98 23.5t36 38.5h174z
M256 524q0 -178 92 -288.5t244 -110.5q142 0 234 110.5t92 290.5q0 173 -83 278t-235 105q-150 0 -247 -105t-97 -280z" />
    <glyph glyph-name="afii10067" unicode="&#x432;" horiz-adv-x="1100" 
d="M631 1059q168 0 259 -63t91 -195q0 -85 -40.5 -140.5t-113.5 -89.5v-2q103 -28 152 -93.5t49 -164.5q0 -139 -93 -225t-221 -86h-583v1059h500zM623 631q89 0 135.5 34.5t46.5 106.5q0 71 -49 104t-138 33h-317v-278h322zM680 150q75 0 123.5 44.5t48.5 120.5
q0 82 -55.5 125t-146.5 43h-349v-333h379z" />
    <glyph glyph-name="afii10068" unicode="&#x433;" horiz-adv-x="864" 
d="M856 1059v-154h-551v-905h-174v1059h725z" />
    <glyph glyph-name="afii10069" unicode="&#x434;" horiz-adv-x="1176" 
d="M1012 1059v-905h137v-490h-174v336h-791v-336h-174v490h115q69 159 101 312.5t32 321.5v271h754zM838 154v751h-408v-72q0 -241 -33 -393t-92 -286h533z" />
    <glyph glyph-name="afii10070" unicode="&#x435;" horiz-adv-x="1100" 
d="M571 1083q228 0 354 -164t126 -421v-21h-793v-13q0 -151 88 -243t242 -92q116 0 184.5 54t89.5 153h172q-35 -176 -154 -268.5t-298 -92.5q-167 0 -282.5 75.5t-170.5 210t-55 275.5q0 234 141 390.5t356 156.5zM258 631h608q-8 129 -93.5 214t-213.5 85q-120 0 -205 -81
t-96 -218z" />
    <glyph glyph-name="afii10072" unicode="&#x436;" horiz-adv-x="1591" 
d="M279 1059l426 -481h4v481h174v-492h4l434 492h211l-404 -441l463 -618h-215l-362 508l-131 -137v-371h-174v367l-136 141l-360 -508h-213l465 618l-406 441h220z" />
    <glyph glyph-name="afii10073" unicode="&#x437;" horiz-adv-x="1024" 
d="M518 1083q183 0 289 -80t106 -219q0 -76 -42 -128.5t-132 -84.5v-4q101 -27 155 -92.5t54 -163.5q0 -152 -124.5 -244t-323.5 -92q-213 0 -326 91.5t-123 267.5h176q9 -107 79 -162t194 -55t196 52t72 138q0 84 -57 128t-160 44h-154v150h128q102 0 157 36t55 111
t-57.5 120.5t-163.5 45.5q-118 0 -186 -48t-80 -142h-176q14 160 130.5 245.5t313.5 85.5z" />
    <glyph glyph-name="afii10074" unicode="&#x438;" 
d="M305 1059v-860h4l475 860h224v-1059h-174v860h-5l-475 -860h-223v1059h174z" />
    <glyph glyph-name="afii10075" unicode="&#x439;" 
d="M305 1059v-860h4l475 860h224v-1059h-174v860h-5l-475 -860h-223v1059h174zM250 1493h102q25 -86 82.5 -128t147.5 -42q74 0 120.5 37.5t81.5 132.5h105q-26 -137 -110.5 -210t-213.5 -73q-136 0 -215 70t-100 213z" />
    <glyph glyph-name="afii10076" unicode="&#x43a;" horiz-adv-x="1053" 
d="M305 1059v-490l483 490h234l-428 -408l459 -651h-222l-363 524h-2l-161 -151v-373h-174v1059h174z" />
    <glyph glyph-name="afii10077" unicode="&#x43b;" horiz-adv-x="1118" 
d="M987 1059v-1059h-174v905h-383l-22 -559q-6 -184 -80 -276.5t-204 -92.5q-33 0 -60.5 5t-59.5 18v143q24 -9 45.5 -12.5t42.5 -3.5q74 0 107.5 55t39.5 190l23 687h725z" />
    <glyph glyph-name="afii10078" unicode="&#x43c;" horiz-adv-x="1409" 
d="M383 1059l322 -864h4l321 864h248v-1059h-174v840h-6l-314 -840h-159l-314 840h-6v-840h-174v1059h252z" />
    <glyph glyph-name="afii10079" unicode="&#x43d;" 
d="M305 1059v-422h529v422h174v-1059h-174v483h-529v-483h-174v1059h174z" />
    <glyph glyph-name="afii10080" unicode="&#x43e;" horiz-adv-x="1176" 
d="M588 1083q240 0 377 -155t137 -400q0 -247 -140 -400t-374 -153q-230 0 -372 150.5t-142 402.5t139 403.5t375 151.5zM258 528q0 -182 93 -290.5t237 -108.5q143 0 236.5 109t93.5 290t-93 291.5t-239 110.5q-140 0 -234 -108.5t-94 -293.5z" />
    <glyph glyph-name="afii10081" unicode="&#x43f;" 
d="M1008 1059v-1059h-174v905h-529v-905h-174v1059h877z" />
    <glyph glyph-name="afii10082" unicode="&#x440;" horiz-adv-x="1214" 
d="M653 1083q227 0 357.5 -156t130.5 -401q0 -246 -130 -398.5t-353 -152.5q-99 0 -193.5 41t-149.5 125h-4v-547h-174v1465h174v-144h4q41 82 129.5 125t208.5 43zM305 530q0 -184 89 -292.5t245 -108.5q151 0 234 108t83 301q0 171 -87.5 281.5t-241.5 110.5
q-153 0 -237.5 -112t-84.5 -288z" />
    <glyph glyph-name="afii10083" unicode="&#x441;" horiz-adv-x="1100" 
d="M573 1083q194 0 315 -92t142 -272h-180q-21 103 -89.5 157t-172.5 54q-162 0 -246 -108.5t-84 -305.5q0 -176 83 -281.5t226 -105.5q127 0 200.5 68.5t90.5 189.5h178q-29 -198 -149 -305t-318 -107q-231 0 -363 145.5t-132 395.5q0 260 133.5 413.5t365.5 153.5z" />
    <glyph glyph-name="afii10084" unicode="&#x442;" horiz-adv-x="948" 
d="M940 1059v-154h-379v-905h-174v905h-379v154h932z" />
    <glyph glyph-name="afii10085" unicode="&#x443;" horiz-adv-x="1024" 
d="M213 1059l309 -866h4l297 866h185l-450 -1172q-71 -183 -136.5 -247t-181.5 -64q-32 0 -62 4t-59 14v160l50.5 -16t51.5 -8q106 0 148 106l67 170l-420 1053h197z" />
    <glyph glyph-name="afii10086" unicode="&#x444;" horiz-adv-x="1640" 
d="M907 1462v-493h6q52 57 113 85.5t133 28.5q181 0 290.5 -145t109.5 -393q0 -268 -112 -419t-313 -151q-61 0 -120.5 26t-101.5 78h-5v-485h-174v490h-4q-50 -56 -111.5 -82.5t-129.5 -26.5q-192 0 -299 153.5t-107 416.5q0 250 111.5 394t300.5 144q76 0 137 -31t96 -83
h6v493h174zM262 541q0 -197 68.5 -308.5t197.5 -111.5q58 0 107 23.5t73.5 58.5t24.5 55v533q-30 71 -87 109t-130 38q-120 0 -187 -101t-67 -296zM907 259q13 -61 71.5 -99.5t133.5 -38.5q130 0 198 112t68 308q0 193 -66 295t-192 102q-71 0 -127 -35t-86 -110v-534z" />
    <glyph glyph-name="afii10087" unicode="&#x445;" horiz-adv-x="1061" 
d="M270 1059l253 -369h2l263 369h209l-364 -488l409 -571h-223l-295 438l-295 -438h-211l398 557l-369 502h223z" />
    <glyph glyph-name="afii10088" unicode="&#x446;" horiz-adv-x="1163" 
d="M305 1059v-905h520v905h174v-905h138v-490h-174v336h-832v1059h174z" />
    <glyph glyph-name="afii10089" unicode="&#x447;" horiz-adv-x="1071" 
d="M268 1059v-313q0 -86 48.5 -132.5t155.5 -46.5q58 0 120 8.5t174 36.5v447h174v-1059h-174v469q-84 -25 -169.5 -37t-157.5 -12q-173 0 -259 81t-86 217v341h174z" />
    <glyph glyph-name="afii10090" unicode="&#x448;" horiz-adv-x="1657" 
d="M305 1059v-905h436v905h174v-905h437v905h174v-1059h-1395v1059h174z" />
    <glyph glyph-name="afii10091" unicode="&#x449;" horiz-adv-x="1690" 
d="M305 1059v-905h436v905h174v-905h437v905h174v-905h137v-490h-174v336h-1358v1059h174z" />
    <glyph glyph-name="afii10092" unicode="&#x44a;" horiz-adv-x="1251" 
d="M485 1059v-404h374q161 0 254 -86.5t93 -234.5q0 -152 -96.5 -243t-252.5 -91h-546v905h-305v154h479zM820 150q98 0 152 45t54 135q0 87 -55.5 131.5t-148.5 44.5h-337v-356h335z" />
    <glyph glyph-name="afii10093" unicode="&#x44b;" horiz-adv-x="1450" 
d="M305 1059v-404h325q157 0 252 -86.5t95 -236.5q0 -151 -97.5 -241.5t-241.5 -90.5h-507v1059h174zM1319 1059v-1059h-174v1059h174zM591 150q97 0 151.5 43.5t54.5 134.5q0 84 -55 131t-149 47h-288v-356h286z" />
    <glyph glyph-name="afii10094" unicode="&#x44c;" horiz-adv-x="1071" 
d="M305 1059v-404h374q157 0 252 -86.5t95 -236.5t-95.5 -241t-243.5 -91h-556v1059h174zM640 150q99 0 152.5 43.5t53.5 134.5q0 87 -56.5 132.5t-147.5 45.5h-337v-356h335z" />
    <glyph glyph-name="afii10095" unicode="&#x44d;" horiz-adv-x="1100" 
d="M532 1083q233 0 363.5 -147.5t130.5 -407.5q0 -262 -137 -407.5t-373 -145.5q-185 0 -307 100t-146 285h177q19 -116 94 -175.5t190 -59.5q140 0 225.5 90t92.5 262h-443v154h439q-19 151 -99 227t-204 76q-110 0 -181.5 -47.5t-97.5 -136.5h-184q31 156 154 244.5
t306 88.5z" />
    <glyph glyph-name="afii10096" unicode="&#x44e;" horiz-adv-x="1569" 
d="M1004 1083q229 0 360 -153t131 -402q0 -250 -133.5 -401.5t-357.5 -151.5q-210 0 -342.5 134.5t-147.5 375.5h-209v-485h-174v1059h174v-424h215q28 209 154 328.5t330 119.5zM694 528q0 -184 83 -291.5t227 -107.5q141 0 224 105.5t83 293.5q0 191 -84 296.5t-225 105.5
q-136 0 -222 -106.5t-86 -295.5z" />
    <glyph glyph-name="afii10097" unicode="&#x44f;" horiz-adv-x="1096" 
d="M965 1059v-1059h-174v432h-232l-334 -432h-231l363 438q-121 20 -191 102t-70 205q0 145 92.5 229.5t250.5 84.5h526zM274 745q0 -77 48.5 -118t137.5 -41h331v319h-338q-77 0 -128 -39t-51 -121z" />
    <glyph glyph-name="uni0450" unicode="&#x450;" horiz-adv-x="1100" 
d="M571 1083q228 0 354 -164t126 -421v-21h-793v-13q0 -151 88 -243t242 -92q116 0 184.5 54t89.5 153h172q-35 -176 -154 -268.5t-298 -92.5q-167 0 -282.5 75.5t-170.5 210t-55 275.5q0 234 141 390.5t356 156.5zM258 631h608q-8 129 -93.5 214t-213.5 85q-120 0 -205 -81
t-96 -218zM491 1499l176 -293h-131l-269 293h224z" />
    <glyph glyph-name="afii10071" unicode="&#x451;" horiz-adv-x="1100" 
d="M571 1083q228 0 354 -164t126 -421v-21h-793v-13q0 -151 88 -243t242 -92q116 0 184.5 54t89.5 153h172q-35 -176 -154 -268.5t-298 -92.5q-167 0 -282.5 75.5t-170.5 210t-55 275.5q0 234 141 390.5t356 156.5zM258 631h608q-8 129 -93.5 214t-213.5 85q-120 0 -205 -81
t-96 -218zM475 1446v-213h-184v213h184zM860 1446v-213h-184v213h184z" />
    <glyph glyph-name="afii10099" unicode="&#x452;" 
d="M305 1462v-149h348v-125h-348v-309h4q50 89 141.5 131.5t193.5 42.5q188 0 276 -95t88 -277v-493q0 -248 -146 -408.5t-411 -185.5v162q196 34 289.5 146t93.5 294v502q0 86 -57 143.5t-160 57.5q-148 0 -230 -89t-82 -230v-580h-174v1188h-176v125h176v149h174z" />
    <glyph glyph-name="afii10100" unicode="&#x453;" horiz-adv-x="864" 
d="M856 1059v-154h-551v-905h-174v1059h725zM756 1499l-269 -293h-131l177 293h223z" />
    <glyph glyph-name="afii10101" unicode="&#x454;" horiz-adv-x="1096" 
d="M582 1083q185 0 298.5 -84.5t143.5 -248.5h-184q-24 90 -87.5 137t-168.5 47q-132 0 -216 -77.5t-106 -225.5h447v-154h-453q12 -172 93.5 -262t221.5 -90q115 0 188 59t97 176h176q-33 -189 -154 -287t-303 -98q-235 0 -368 143t-133 396q0 266 134 417.5t374 151.5z
" />
    <glyph glyph-name="afii10102" unicode="&#x455;" horiz-adv-x="1024" 
d="M483 1083q214 0 318 -83t114 -248h-174v2q-7 84 -73.5 130t-171.5 46t-165.5 -35.5t-60.5 -99.5q0 -58 53.5 -95t161.5 -60l164 -37q154 -34 234 -104.5t80 -189.5q0 -156 -121 -245t-330 -89q-203 0 -322 91t-127 268h175q3 -99 78 -152t206 -53q126 0 191 40t65 118
q0 71 -64.5 112.5t-264.5 81.5q-200 39 -281.5 110.5t-81.5 190.5q0 139 113 220t284 81z" />
    <glyph glyph-name="afii10103" unicode="&#x456;" horiz-adv-x="455" 
d="M315 1462v-213h-174v213h174zM315 1059v-1059h-174v1059h174z" />
    <glyph glyph-name="afii10104" unicode="&#x457;" horiz-adv-x="455" 
d="M129 1446v-213h-184v213h184zM514 1446v-213h-184v213h184zM315 1059v-1059h-174v1059h174z" />
    <glyph glyph-name="afii10105" unicode="&#x458;" horiz-adv-x="455" 
d="M315 1462v-213h-174v213h174zM315 1059v-1201q0 -124 -63.5 -194t-190.5 -70q-24 0 -46 2t-44 7v149q14 -3 28.5 -3.5t28.5 -0.5q52 1 70.5 11.5t30.5 36t12 89.5v1174h174z" />
    <glyph glyph-name="afii10106" unicode="&#x459;" horiz-adv-x="1583" 
d="M926 1059v-404h277q148 0 241.5 -85.5t93.5 -237.5q0 -153 -97.5 -242.5t-239.5 -89.5h-449v905h-332l-22 -570q-7 -143 -43 -213.5t-92.5 -107.5t-142.5 -37q-32 0 -58.5 5t-57.5 18v143q22 -7 43 -11.5t41 -4.5q75 0 105.5 57.5t33.5 156.5l25 718h674zM1154 150
q96 0 150 43t54 135q0 85 -54 131.5t-148 46.5h-230v-356h228z" />
    <glyph glyph-name="afii10107" unicode="&#x45a;" horiz-adv-x="1593" 
d="M305 1059v-404h447v404h174v-404h275q157 0 252 -86t95 -237q0 -153 -97.5 -242.5t-241.5 -89.5h-457v504h-447v-504h-174v1059h174zM1162 150q98 0 152 44t54 134q0 87 -56 132.5t-148 45.5h-238v-356h236z" />
    <glyph glyph-name="afii10108" unicode="&#x45b;" 
d="M305 1462v-149h348v-125h-348v-309h4q50 89 141.5 131.5t193.5 42.5q188 0 276 -96t88 -276v-681h-174v698q0 86 -57 143.5t-160 57.5q-148 0 -230 -89t-82 -230v-580h-174v1188h-176v125h176v149h174z" />
    <glyph glyph-name="afii10109" unicode="&#x45c;" horiz-adv-x="1053" 
d="M305 1059v-490l483 490h234l-428 -408l459 -651h-222l-363 524h-2l-161 -151v-373h-174v1059h174zM815 1499l-269 -293h-131l177 293h223z" />
    <glyph glyph-name="uni045D" unicode="&#x45d;" 
d="M305 1059v-860h4l475 860h224v-1059h-174v860h-5l-475 -860h-223v1059h174zM491 1499l176 -293h-131l-269 293h224z" />
    <glyph glyph-name="afii10110" unicode="&#x45e;" horiz-adv-x="1024" 
d="M213 1059l309 -866h4l297 866h185l-450 -1172q-71 -183 -136.5 -247t-181.5 -64q-32 0 -62 4t-59 14v160l50.5 -16t51.5 -8q106 0 148 106l67 170l-420 1053h197zM203 1493h102q25 -86 82.5 -128t147.5 -42q74 0 120.5 37.5t81.5 132.5h105q-26 -137 -110.5 -210
t-213.5 -73q-136 0 -215 70t-100 213z" />
    <glyph glyph-name="afii10193" unicode="&#x45f;" 
d="M305 1059v-905h529v905h174v-1059h-353v-336h-174v336h-350v1059h174z" />
    <glyph glyph-name="afii10146" unicode="&#x462;" horiz-adv-x="1487" 
d="M514 1462v-209h401v-155h-401v-236h445q213 0 331.5 -110t118.5 -322q0 -203 -121.5 -316.5t-330.5 -113.5h-638v1098h-315v155h315v209h195zM904 164q148 0 229 65t81 201t-82 202t-228 66h-390v-534h390z" />
    <glyph glyph-name="afii10194" unicode="&#x463;" horiz-adv-x="1202" 
d="M436 1462v-403h463v-154h-463v-250h384q147 0 242 -86.5t95 -236.5q0 -153 -97.5 -242.5t-241.5 -89.5h-556v905h-256v154h256v403h174zM771 150q97 0 151.5 43.5t54.5 134.5q0 87 -56.5 132.5t-157.5 45.5h-327v-356h335z" />
    <glyph glyph-name="afii10147" unicode="&#x472;" horiz-adv-x="1556" 
d="M778 1497q213 0 371 -98.5t244 -277t86 -390.5q0 -214 -85.5 -391.5t-245 -276t-370.5 -98.5t-369.5 98t-244.5 275.5t-86 392.5q0 332 190.5 549t509.5 217zM274 834h1008q-31 232 -162.5 365.5t-343.5 133.5q-204 0 -336.5 -131t-165.5 -368zM270 674q22 -259 157 -402
t351 -143q219 0 354.5 147t153.5 398h-1016z" />
    <glyph glyph-name="afii10195" unicode="&#x473;" horiz-adv-x="1176" 
d="M588 1083q240 0 377 -155t137 -400t-139 -399t-375 -154q-232 0 -373 150.5t-141 402.5t139 403.5t375 151.5zM913 627q-24 142 -113.5 222.5t-213.5 80.5q-122 0 -210.5 -80.5t-113.5 -222.5h651zM588 129q133 0 224 90.5t108 257.5h-664q16 -167 108 -257.5t224 -90.5z
" />
    <glyph glyph-name="afii10148" unicode="&#x474;" horiz-adv-x="1294" 
d="M1247 1497q32 0 63 -4t54 -12v-164q-25 8 -48 12t-44 4q-59 0 -88 -31t-45 -78l-404 -1224h-221l-516 1462h211l418 -1267h4l318 1031q48 159 117 215t181 56z" />
    <glyph glyph-name="afii10196" unicode="&#x475;" horiz-adv-x="1049" 
d="M972 1083q25 0 49.5 -3t49.5 -11v-154q-25 10 -44 12.5t-32 2.5q-34 0 -58 -22t-38 -64l-291 -844h-186l-393 1059h194l297 -883h4l221 714q35 109 87 151t140 42z" />
    <glyph glyph-name="afii10050" unicode="&#x490;" horiz-adv-x="1130" 
d="M1108 1788v-490h-754v-1298h-194v1462h753v326h195z" />
    <glyph glyph-name="afii10098" unicode="&#x491;" horiz-adv-x="864" 
d="M848 1376v-471h-543v-905h-174v1059h543v317h174z" />
    <glyph glyph-name="Wgrave" unicode="&#x1e80;" horiz-adv-x="1896" 
d="M223 1462l287 -1216h4l328 1216h211l323 -1216h4l297 1216h195l-391 -1462h-203l-334 1229h-4l-338 -1229h-203l-374 1462h198zM891 1888l176 -293h-131l-268 293h223z" />
    <glyph glyph-name="wgrave" unicode="&#x1e81;" horiz-adv-x="1552" 
d="M227 1059l240 -866h4l213 866h190l221 -861l2 -5h3l237 866h181l-337 -1056l-2 -3h-184l-214 837l-2 5h-3l-213 -842h-188l-340 1059h192zM698 1499l176 -293h-131l-269 293h224z" />
    <glyph glyph-name="Wacute" unicode="&#x1e82;" horiz-adv-x="1896" 
d="M223 1462l287 -1216h4l328 1216h211l323 -1216h4l297 1216h195l-391 -1462h-203l-334 1229h-4l-338 -1229h-203l-374 1462h198zM1223 1888l-269 -293h-131l177 293h223z" />
    <glyph glyph-name="wacute" unicode="&#x1e83;" horiz-adv-x="1552" 
d="M227 1059l240 -866h4l213 866h190l221 -861l2 -5h3l237 866h181l-337 -1056l-2 -3h-184l-214 837l-2 5h-3l-213 -842h-188l-340 1059h192zM1080 1499l-269 -293h-131l177 293h223z" />
    <glyph glyph-name="Wdieresis" unicode="&#x1e84;" horiz-adv-x="1896" 
d="M223 1462l287 -1216h4l328 1216h211l323 -1216h4l297 1216h195l-391 -1462h-203l-334 1229h-4l-338 -1229h-203l-374 1462h198zM850 1837v-213h-184v213h184zM1235 1837v-213h-184v213h184z" />
    <glyph glyph-name="wdieresis" unicode="&#x1e85;" horiz-adv-x="1552" 
d="M227 1059l240 -866h4l213 866h190l221 -861l2 -5h3l237 866h181l-337 -1056l-2 -3h-184l-214 837l-2 5h-3l-213 -842h-188l-340 1059h192zM682 1446v-213h-184v213h184zM1067 1446v-213h-184v213h184z" />
    <glyph glyph-name="Ygrave" unicode="&#x1ef2;" horiz-adv-x="1327" 
d="M236 1462l438 -696l428 696h221l-559 -864v-598h-195v598l-565 864h232zM584 1888l176 -293h-131l-268 293h223z" />
    <glyph glyph-name="ygrave" unicode="&#x1ef3;" horiz-adv-x="1024" 
d="M213 1059l309 -866h4l297 866h185l-450 -1172q-71 -183 -136.5 -247t-181.5 -64q-32 0 -62 4t-59 14v160l50.5 -16t51.5 -8q106 0 148 106l67 170l-420 1053h197zM438 1499l176 -293h-131l-269 293h224z" />
    <glyph glyph-name="uni2010" unicode="&#x2010;" horiz-adv-x="797" 
d="M694 651v-164h-592v164h592z" />
    <glyph glyph-name="endash" unicode="&#x2013;" horiz-adv-x="1024" 
d="M1024 651v-164h-1024v164h1024z" />
    <glyph glyph-name="emdash" unicode="&#x2014;" horiz-adv-x="2048" 
d="M1782 651v-164h-1516v164h1516z" />
    <glyph glyph-name="afii00208" unicode="&#x2015;" horiz-adv-x="2048" 
d="M1843 651v-164h-1638v164h1638z" />
    <glyph glyph-name="quoteleft" unicode="&#x2018;" horiz-adv-x="569" 
d="M397 1360q-56 0 -87 -51.5t-31 -147.5h120v-227h-227v213q0 147 59 231t166 84v-102z" />
    <glyph glyph-name="quoteright" unicode="&#x2019;" horiz-adv-x="569" 
d="M397 1462v-235q0 -124 -57.5 -208t-167.5 -85v102q57 0 87.5 51.5t31.5 147.5h-121v227h227z" />
    <glyph glyph-name="quotesinglbase" unicode="&#x201a;" horiz-adv-x="569" 
d="M397 227v-235q0 -124 -57.5 -208.5t-167.5 -84.5v102q58 0 88.5 53.5t30.5 145.5h-121v227h227z" />
    <glyph glyph-name="quotedblleft" unicode="&#x201c;" horiz-adv-x="872" 
d="M360 1360q-57 0 -87 -53t-31 -146h120v-227h-227v217q0 143 59 227t166 84v-102zM735 1360q-56 0 -87 -51t-32 -148h121v-227h-227v225q0 135 59 219t166 84v-102z" />
    <glyph glyph-name="quotedblright" unicode="&#x201d;" horiz-adv-x="872" 
d="M362 1462v-235q0 -128 -58.5 -210.5t-166.5 -82.5v102q57 0 87.5 51.5t31.5 147.5h-121v227h227zM737 1462v-235q0 -124 -57.5 -208.5t-167.5 -84.5v102q57 0 87.5 51.5t31.5 147.5h-121v227h227z" />
    <glyph glyph-name="quotedblbase" unicode="&#x201e;" horiz-adv-x="872" 
d="M362 227v-225q0 -137 -58.5 -220t-166.5 -83v102q58 0 88.5 53.5t30.5 145.5h-121v227h227zM737 227v-225q0 -134 -57.5 -218.5t-167.5 -84.5v102q58 0 88.5 53.5t30.5 145.5h-121v227h227z" />
    <glyph glyph-name="dagger" unicode="&#x2020;" 
d="M647 1462v-403h406v-154h-406v-1222h-164v1222h-397v154h397v403h164z" />
    <glyph glyph-name="daggerdbl" unicode="&#x2021;" 
d="M647 1462v-403h406v-154h-406v-665h406v-154h-406v-403h-164v403h-397v154h397v665h-397v154h397v403h164z" />
    <glyph glyph-name="bullet" unicode="&#x2022;" horiz-adv-x="1024" 
d="M512 1096q151 0 259 -108t108 -257q0 -148 -106.5 -257t-260.5 -109t-259.5 109t-105.5 257t106 256.5t259 108.5z" />
    <glyph glyph-name="ellipsis" unicode="&#x2026;" horiz-adv-x="2048" 
d="M455 227v-227h-228v227h228zM1137 227v-227h-228v227h228zM1819 227v-227h-228v227h228z" />
    <glyph glyph-name="perthousand" unicode="&#x2030;" horiz-adv-x="2351" 
d="M1460 1479l-1100 -1524h-176l1102 1524h174zM451 1452q146 0 222.5 -90t76.5 -256q0 -150 -75.5 -251t-228.5 -101q-148 0 -223.5 90.5t-75.5 251.5q0 170 78 263t226 93zM301 1101q0 -122 38 -178.5t110 -56.5q71 0 109 61.5t38 172.5q0 108 -35 173.5t-105 65.5
q-75 0 -115 -65t-40 -173zM1198 674q146 0 222.5 -89.5t76.5 -255.5q0 -154 -76.5 -254t-226.5 -100q-143 0 -221 88.5t-78 253.5q0 168 76.5 262.5t226.5 94.5zM1905 674q146 0 222.5 -90t76.5 -255q0 -151 -76 -252.5t-227 -101.5q-141 0 -220 86t-79 256q0 172 77 264.5
t226 92.5zM1049 323q0 -121 37.5 -178t109.5 -57q71 0 109 61t38 172q0 109 -35.5 174.5t-104.5 65.5q-68 0 -111 -60t-43 -178zM1755 323q0 -122 38 -178.5t110 -56.5q70 0 108.5 61t38.5 173q0 107 -35.5 173t-104.5 66q-73 0 -114 -64t-41 -174z" />
    <glyph glyph-name="guilsinglleft" unicode="&#x2039;" horiz-adv-x="530" 
d="M414 905v-176l-205 -160l205 -159v-177l-312 246v180z" />
    <glyph glyph-name="guilsinglright" unicode="&#x203a;" horiz-adv-x="530" 
d="M117 905l311 -246v-180l-311 -246v177l205 159l-205 160v176z" />
    <glyph glyph-name="interrobang" unicode="&#x203d;" 
d="M621 1462v-131h2q174 -16 270 -108t96 -234q0 -75 -36 -148t-148 -182q-89 -89 -112 -122.5t-33.5 -61t-10.5 -88.5v-31h-162l-41 656v162q-70 -19 -114.5 -72.5t-52.5 -116.5h-168q12 128 101.5 218t233.5 120v139h175zM588 637q49 53 100 103q50 49 89.5 110t39.5 135
q0 82 -48 136.5t-148 64.5v-174zM674 227v-227h-228v227h228z" />
    <glyph glyph-name="fraction" unicode="&#x2044;" horiz-adv-x="342" 
d="M682 1485l-891 -1542h-131l891 1542h131z" />
    <glyph glyph-name="zero.superior" unicode="&#x2070;" horiz-adv-x="758" 
d="M381 1698q155 0 231 -112.5t76 -338.5q0 -222 -79.5 -337t-231.5 -115q-158 0 -232.5 110.5t-74.5 337.5q0 223 79.5 339t231.5 116zM213 1245q0 -172 40.5 -255t125.5 -83q87 0 126.5 83.5t39.5 256.5q0 171 -40 254.5t-127 83.5q-89 0 -127 -87.5t-38 -252.5z" />
    <glyph glyph-name="four.superior" unicode="&#x2074;" horiz-adv-x="758" 
d="M580 1679v-544h114v-113h-114v-209h-136v209h-393v139l393 518h136zM440 1505l-276 -370h280v370h-4z" />
    <glyph glyph-name="five.superior" unicode="&#x2075;" horiz-adv-x="758" 
d="M633 1679v-112h-357l-49 -232l9 -2q24 25 68.5 42.5t97.5 17.5q133 0 209.5 -76t76.5 -209q0 -130 -86.5 -221.5t-230.5 -91.5q-138 0 -219 68t-89 194h140q5 -76 51.5 -114t116.5 -38q84 0 131 51.5t47 148.5q0 85 -48 134t-132 49q-53 0 -93.5 -24t-62.5 -62h-133
l92 477h461z" />
    <glyph glyph-name="six.superior" unicode="&#x2076;" horiz-adv-x="758" 
d="M408 1698q113 0 183 -59t79 -164h-131q-8 55 -44.5 83.5t-93.5 28.5q-87 0 -137 -78.5t-55 -224.5l2 -2q28 45 82 71.5t122 26.5q128 0 201.5 -77t73.5 -209q0 -134 -82.5 -216.5t-216.5 -82.5q-159 0 -239 106.5t-80 328.5q0 219 88.5 343.5t247.5 124.5zM217 1096
q0 -87 48.5 -140t121.5 -53q77 0 121.5 50.5t44.5 142.5q0 83 -45.5 131.5t-123.5 48.5q-75 0 -121 -53t-46 -127z" />
    <glyph glyph-name="seven.superior" unicode="&#x2077;" horiz-adv-x="758" 
d="M678 1679v-106q-142 -159 -224 -345t-100 -415h-151q14 193 98.5 386t235.5 364h-449v116h590z" />
    <glyph glyph-name="eight.superior" unicode="&#x2078;" horiz-adv-x="758" 
d="M379 1698q128 0 200 -62.5t72 -175.5q0 -60 -30 -105.5t-95 -70.5v-4q81 -23 121.5 -80.5t40.5 -136.5q0 -120 -84.5 -194t-228.5 -74q-141 0 -224 70t-83 196q0 76 41.5 132.5t117.5 84.5v4q-64 26 -93.5 72t-29.5 106q0 102 75 170t200 68zM233 1460q0 -61 39 -99
t105 -38q67 0 106 37t39 100q0 60 -38.5 96.5t-107.5 36.5q-65 0 -104 -36.5t-39 -96.5zM205 1065q0 -78 48.5 -122t123.5 -44q78 0 126 45.5t48 120.5q0 70 -48 117t-127 47q-73 0 -122 -45.5t-49 -118.5z" />
    <glyph glyph-name="nine.superior" unicode="&#x2079;" horiz-adv-x="758" 
d="M369 1698q160 0 239.5 -107.5t79.5 -327.5q0 -214 -86 -341t-250 -127q-114 0 -184 59t-78 164h131q8 -56 44.5 -84.5t92.5 -28.5q86 0 136.5 76.5t56.5 226.5l-2 2q-30 -44 -82.5 -71t-121.5 -27q-128 0 -201.5 77t-73.5 210t83 216t216 83zM205 1397q0 -82 46 -131
t124 -49q74 0 122 52t48 128q0 83 -48.5 137.5t-125.5 54.5q-78 0 -122 -52t-44 -140z" />
    <glyph glyph-name="plus.superior" unicode="&#x207a;" horiz-adv-x="819" 
d="M475 1448v-254h262v-127h-262v-254h-129v254h-262v127h262v254h129z" />
    <glyph glyph-name="minus.superior" unicode="&#x207b;" horiz-adv-x="512" 
d="M440 1217v-132h-368v132h368z" />
    <glyph glyph-name="equal.superior" unicode="&#x207c;" horiz-adv-x="819" 
d="M737 1317v-127h-653v127h653zM737 1063v-127h-653v127h653z" />
    <glyph glyph-name="parenleft.superior" unicode="&#x207d;" horiz-adv-x="389" 
d="M264 1794h111q-77 -138 -115.5 -278.5t-38.5 -292.5q0 -155 37.5 -295t116.5 -277h-121q-95 152 -135.5 284.5t-40.5 286.5q0 143 46.5 286.5t139.5 285.5z" />
    <glyph glyph-name="parenright.superior" unicode="&#x207e;" horiz-adv-x="389" 
d="M14 1794h121q93 -148 134.5 -282.5t41.5 -287.5q0 -141 -46 -284.5t-140 -288.5h-111q78 139 116 279.5t38 292.5q0 151 -36.5 290.5t-117.5 280.5z" />
    <glyph glyph-name="n.superior" unicode="&#x207f;" horiz-adv-x="758" 
d="M436 1473q114 0 175 -66.5t61 -166.5v-427h-137v393q0 68 -32 111t-110 43q-76 0 -124 -53t-48 -142v-352h-135v641h135v-94q41 59 95.5 86t119.5 27z" />
    <glyph glyph-name="zero.inferior" unicode="&#x2080;" horiz-adv-x="758" 
d="M381 539q155 0 231 -112.5t76 -338.5q0 -222 -79.5 -337t-231.5 -115q-158 0 -232.5 110.5t-74.5 337.5q0 223 79.5 339t231.5 116zM213 86q0 -172 40.5 -255t125.5 -83q87 0 126.5 83.5t39.5 256.5q0 171 -40 254.5t-127 83.5q-89 0 -127 -87.5t-38 -252.5z" />
    <glyph glyph-name="one.inferior" unicode="&#x2081;" horiz-adv-x="758" 
d="M393 525h103v-870h-140v623h-235v102q127 0 192.5 39t79.5 106z" />
    <glyph glyph-name="two.inferior" unicode="&#x2082;" horiz-adv-x="758" 
d="M397 540q127 0 207 -71.5t80 -186.5q0 -92 -48 -164t-211 -156q-104 -54 -149.5 -99t-56.5 -95h453v-113h-609q7 138 69 232.5t217 171.5q113 56 154.5 100t41.5 119q0 65 -39 107t-111 42q-82 0 -127.5 -51t-48.5 -152h-139q0 142 87.5 229t229.5 87z" />
    <glyph glyph-name="three.inferior" unicode="&#x2083;" horiz-adv-x="758" 
d="M386 539q126 0 203.5 -66t77.5 -169q0 -59 -39 -108.5t-103 -72.5v-4q88 -21 132 -73t44 -134q0 -124 -91 -200t-231 -76q-149 0 -234 77t-85 213h136q0 -86 49.5 -133t138.5 -47q85 0 132.5 43.5t47.5 116.5q0 72 -47.5 112t-133.5 40h-67v102h22q73 0 99 9.5t45 22
t33 38t14 65.5q0 61 -39.5 97t-103.5 36q-79 0 -122 -45.5t-48 -136.5h-135q5 137 88.5 215t216.5 78z" />
    <glyph glyph-name="four.inferior" unicode="&#x2084;" horiz-adv-x="758" 
d="M580 521v-544h114v-113h-114v-209h-136v209h-393v139l393 518h136zM440 347l-276 -370h280v370h-4z" />
    <glyph glyph-name="five.inferior" unicode="&#x2085;" horiz-adv-x="758" 
d="M633 520v-112h-357l-49 -232l9 -2q24 25 68.5 42.5t97.5 17.5q133 0 209.5 -76t76.5 -209q0 -130 -86.5 -221.5t-230.5 -91.5q-138 0 -219 68t-89 194h140q5 -76 51.5 -114t116.5 -38q84 0 131 51.5t47 148.5q0 85 -48 134t-132 49q-53 0 -93.5 -24t-62.5 -62h-133
l92 477h461z" />
    <glyph glyph-name="six.inferior" unicode="&#x2086;" horiz-adv-x="758" 
d="M408 539q113 0 183 -59t79 -164h-131q-8 55 -44.5 83.5t-93.5 28.5q-87 0 -137 -78.5t-55 -224.5l2 -2q28 45 82 71.5t122 26.5q128 0 201.5 -77t73.5 -209q0 -134 -82.5 -216.5t-216.5 -82.5q-159 0 -239 106.5t-80 328.5q0 219 88.5 343.5t247.5 124.5zM217 -63
q0 -87 48.5 -140t121.5 -53q77 0 121.5 50.5t44.5 142.5q0 83 -45.5 131.5t-123.5 48.5q-75 0 -121 -53t-46 -127z" />
    <glyph glyph-name="seven.inferior" unicode="&#x2087;" horiz-adv-x="758" 
d="M678 521v-106q-142 -159 -224 -345t-100 -415h-151q14 193 98.5 386t235.5 364h-449v116h590z" />
    <glyph glyph-name="eight.inferior" unicode="&#x2088;" horiz-adv-x="758" 
d="M379 539q128 0 200 -62.5t72 -175.5q0 -60 -30 -105.5t-95 -70.5v-4q81 -23 121.5 -80.5t40.5 -136.5q0 -120 -84.5 -194t-228.5 -74q-141 0 -224 70t-83 196q0 76 41.5 132.5t117.5 84.5v4q-64 26 -93.5 72t-29.5 106q0 102 75 170t200 68zM233 301q0 -61 39 -99
t105 -38q67 0 106 37t39 100q0 60 -38.5 96.5t-107.5 36.5q-65 0 -104 -36.5t-39 -96.5zM205 -94q0 -78 48.5 -122t123.5 -44q78 0 126 45.5t48 120.5q0 70 -48 117t-127 47q-73 0 -122 -45.5t-49 -118.5z" />
    <glyph glyph-name="nine.inferior" unicode="&#x2089;" horiz-adv-x="758" 
d="M369 539q160 0 239.5 -107.5t79.5 -327.5q0 -214 -86 -341t-250 -127q-114 0 -184 59t-78 164h131q8 -56 44.5 -84.5t92.5 -28.5q86 0 136.5 76.5t56.5 226.5l-2 2q-30 -44 -82.5 -71t-121.5 -27q-128 0 -201.5 77t-73.5 210t83 216t216 83zM205 238q0 -82 46 -131
t124 -49q74 0 122 52t48 128q0 83 -48.5 137.5t-125.5 54.5q-78 0 -122 -52t-44 -140z" />
    <glyph glyph-name="plus.inferior" unicode="&#x208a;" horiz-adv-x="819" 
d="M475 290v-254h262v-127h-262v-254h-129v254h-262v127h262v254h129z" />
    <glyph glyph-name="minus.inferior" unicode="&#x208b;" horiz-adv-x="512" 
d="M440 59v-132h-368v132h368z" />
    <glyph glyph-name="equal.inferior" unicode="&#x208c;" horiz-adv-x="819" 
d="M737 159v-127h-653v127h653zM737 -95v-127h-653v127h653z" />
    <glyph glyph-name="parenleft.inferior" unicode="&#x208d;" horiz-adv-x="389" 
d="M264 636h111q-77 -138 -115.5 -278.5t-38.5 -292.5q0 -155 37.5 -295t116.5 -277h-121q-95 152 -135.5 284.5t-40.5 286.5q0 143 46.5 286.5t139.5 285.5z" />
    <glyph glyph-name="parenright.inferior" unicode="&#x208e;" horiz-adv-x="389" 
d="M14 636h121q93 -148 134.5 -282.5t41.5 -287.5q0 -141 -46 -284.5t-140 -288.5h-111q78 139 116 279.5t38 292.5q0 151 -36.5 290.5t-117.5 280.5z" />
    <glyph glyph-name="Euro" unicode="&#x20ac;" 
d="M772 1485q94 0 186 -32.5t184 -95.5l-93 -171q-73 70 -146.5 105.5t-146.5 35.5q-141 0 -236 -109t-133 -296h580l-56 -125h-538q-4 -54 0 -107h510l-54 -125h-446q34 -219 131 -329.5t258 -110.5q85 0 152 28.5t163 118.5v-215q-69 -44 -148 -67t-167 -23
q-249 0 -397 149t-191 449h-157l56 125h93q-5 53 0 107h-149l53 125h110q52 265 203 414t379 149z" />
    <glyph glyph-name="afii61248" unicode="&#x2105;" horiz-adv-x="1708" 
d="M1360 1485l-891 -1542h-131l891 1542h131zM408 1452q136 0 208 -71.5t82 -217.5h-147q-6 85 -44 128.5t-108 43.5q-100 0 -139 -80.5t-39 -255.5q0 -169 41 -251t137 -82q77 0 114.5 43.5t41.5 138.5h147q-15 -153 -92 -226t-213 -73q-162 0 -243.5 109.5t-81.5 340.5
q0 226 81.5 339.5t254.5 113.5zM1309 879q163 0 245 -109t82 -342q0 -228 -86 -340.5t-245 -112.5q-166 0 -247 111t-81 340q0 228 85.5 340.5t246.5 112.5zM1126 426q0 -171 42.5 -253.5t138.5 -82.5q94 0 137 81t43 257q0 170 -42.5 253t-138.5 83q-97 0 -138.5 -84
t-41.5 -254z" />
    <glyph glyph-name="afii61289" unicode="&#x2113;" horiz-adv-x="1024" 
d="M588 1477q96 0 160.5 -69.5t64.5 -193.5q0 -146 -86.5 -307t-263.5 -344v-313q0 -79 40.5 -125.5t112.5 -46.5q43 0 89.5 18.5t90.5 58.5h5l49 -71q-61 -56 -127.5 -84.5t-138.5 -28.5q-117 0 -188.5 68.5t-71.5 186.5v241l-119 -127h-4l-54 76l177 172v538
q0 155 74.5 253t189.5 98zM463 686q111 128 172 264.5t61 253.5q0 78 -31 126t-78 48q-55 0 -89.5 -64.5t-34.5 -164.5v-463z" />
    <glyph glyph-name="afii61352" unicode="&#x2116;" horiz-adv-x="2048" 
d="M365 1427l655 -1146h4v1146h184v-1427h-213l-649 1135h-4v-1135h-184v1427h207zM1636 862q142 0 221.5 -79.5t79.5 -221.5q0 -130 -80.5 -210.5t-220.5 -80.5t-220.5 80.5t-80.5 220.5q0 131 81 211t220 80zM1485 565q0 -89 40 -135.5t111 -46.5q77 0 114.5 47t37.5 137
q0 87 -39 135t-114 48q-69 0 -109.5 -44.5t-40.5 -140.5zM1933 129v-129h-573v129h573z" />
    <glyph glyph-name="published" unicode="&#x2117;" horiz-adv-x="1638" 
d="M821 1497q317 0 542.5 -222t225.5 -540q0 -323 -226 -546.5t-542 -223.5q-320 0 -546 225t-226 545q0 316 227 539t545 223zM188 735q0 -279 182 -468t451 -189q267 0 448 189.5t181 467.5q0 273 -181 461t-450 188q-266 0 -448.5 -187.5t-182.5 -461.5zM897 1180
q138 0 221.5 -65.5t83.5 -194.5q0 -128 -79.5 -197.5t-213.5 -69.5h-227v-368h-139v895h354zM894 766q79 0 124 34.5t45 117.5q0 76 -47 112.5t-126 36.5h-208v-301h212z" />
    <glyph glyph-name="trademark" unicode="&#x2122;" horiz-adv-x="2028" 
d="M799 1462v-112h-264v-732h-140v732h-264v112h668zM1186 1462l252 -641l248 641h212v-844h-139v705h-4l-276 -705h-88l-277 705h-4v-705h-139v844h215z" />
    <glyph glyph-name="Omega" unicode="&#x2126;" horiz-adv-x="1554" 
d="M782 1497q300 0 492 -193t192 -483q0 -203 -83 -365.5t-253 -283.5v-8h359v-164h-578v147q179 123 270 294t91 381q0 222 -134.5 366.5t-355.5 144.5q-224 0 -361.5 -145t-137.5 -385q0 -206 91 -367.5t277 -288.5v-147h-579v164h350v8q-169 117 -251.5 272.5
t-82.5 356.5q0 299 195.5 497.5t498.5 198.5z" />
    <glyph glyph-name="estimated" unicode="&#x212e;" horiz-adv-x="1556" 
d="M780 1452q299 0 493 -200t200 -539h-1080v-484q80 -80 177 -118.5t210 -38.5q172 0 296 79t220 242l95 -57q-125 -194 -265 -277.5t-345 -83.5q-198 0 -356.5 94.5t-246.5 265.5t-88 378q0 318 193 528.5t497 210.5zM393 811h778v387q-82 78 -180.5 119t-214.5 41
q-106 0 -203 -38.5t-180 -121.5v-387z" />
    <glyph glyph-name="onethird" unicode="&#x2153;" horiz-adv-x="1708" 
d="M1288 1485l-891 -1542h-131l891 1542h131zM367 1452h102v-879h-139v631h-236v103h6q114 0 181 35t86 110zM1323 885q126 0 203.5 -66t77.5 -169q0 -59 -38.5 -108.5t-103.5 -72.5v-4q88 -21 132 -73t44 -134q0 -124 -91 -200t-231 -76q-150 0 -234.5 77t-83.5 213h135
q0 -86 49.5 -133t138.5 -47q84 0 132 43t48 117q0 70 -46 110.5t-128 40.5h-74v103h37q96 0 136 37t40 98t-39.5 97t-103.5 36q-79 0 -122 -45.5t-48 -136.5h-135q5 137 88.5 215t216.5 78z" />
    <glyph glyph-name="twothirds" unicode="&#x2154;" horiz-adv-x="1708" 
d="M1378 1485l-891 -1542h-131l891 1542h131zM389 1458q129 0 208 -71.5t79 -186.5q0 -96 -53 -169t-223 -160q-171 -87 -189 -185h453v-113h-609q5 95 32 161t74 117t111 88l136 75q70 38 99.5 77.5t29.5 104.5q0 69 -40.5 109.5t-109.5 40.5q-85 0 -129.5 -54t-46.5 -149
h-139q0 143 86.5 229t230.5 86zM1352 885q124 0 202 -64.5t78 -170.5q0 -62 -38.5 -110t-102.5 -71v-4q89 -22 132.5 -74t43.5 -133q0 -123 -91 -199.5t-231 -76.5q-148 0 -233.5 76.5t-85.5 213.5h135q2 -89 51.5 -134.5t137.5 -45.5q84 0 132 43t48 117q0 70 -47 110.5
t-122 40.5h-79v103h33q73 0 107.5 16.5t53.5 45.5t19 73q0 58 -38.5 95.5t-104.5 37.5q-81 0 -123.5 -47t-46.5 -135h-135q5 135 87.5 214t217.5 79z" />
    <glyph glyph-name="oneeighth" unicode="&#x215b;" horiz-adv-x="1708" 
d="M1315 1485l-891 -1542h-131l891 1542h131zM387 1452h102v-879h-139v631h-235v103h6q116 0 181.5 35.5t84.5 109.5zM1339 885q129 0 201 -63.5t72 -174.5q0 -64 -32 -108.5t-93 -67.5v-4q80 -24 121 -81t41 -136q0 -119 -84.5 -193.5t-229.5 -74.5q-141 0 -224 70t-83 196
q0 74 42.5 132t117.5 85v4q-64 26 -93.5 72t-29.5 106q0 105 77 171.5t197 66.5zM1194 647q0 -64 40 -100.5t103 -36.5q68 0 107 37.5t39 99.5q0 60 -39 96.5t-108 36.5q-66 0 -104 -37t-38 -96zM1165 252q0 -75 47 -120.5t125 -45.5q81 0 127.5 45t46.5 121
q0 73 -49.5 118.5t-125.5 45.5q-72 0 -121.5 -46t-49.5 -118z" />
    <glyph glyph-name="threeeighths" unicode="&#x215c;" horiz-adv-x="1708" 
d="M1389 1485l-891 -1542h-131l890 1542h132zM414 1458q125 0 202.5 -64.5t77.5 -169.5q0 -61 -37.5 -109t-103.5 -73v-4q87 -20 131.5 -72.5t44.5 -134.5q0 -121 -90.5 -198.5t-231.5 -77.5q-147 0 -233 75t-86 216h135q2 -89 51.5 -134.5t137.5 -45.5q83 0 131.5 42.5
t48.5 116.5q0 70 -47 111t-124 41h-77v102h27q106 0 146 37.5t40 97.5q0 62 -41 98t-102 36q-77 0 -121 -46t-49 -137h-135q5 135 87.5 214t217.5 79zM1329 885q130 0 201.5 -64.5t71.5 -173.5q0 -62 -31 -106t-94 -70v-4q79 -23 120 -79t41 -138q0 -122 -85 -195t-228 -73
q-144 0 -225.5 71t-81.5 195q0 75 41.5 132t118.5 85v4q-64 26 -93.5 72t-29.5 106q0 106 76 172t198 66zM1184 647q0 -63 39 -100t104 -37q68 0 107 38t39 99q0 60 -39 96.5t-108 36.5q-65 0 -103.5 -36t-38.5 -97zM1155 252q0 -75 47 -120.5t125 -45.5q81 0 127.5 45
t46.5 121q0 72 -49.5 118t-125.5 46q-72 0 -121.5 -46t-49.5 -118z" />
    <glyph glyph-name="fiveeighths" unicode="&#x215d;" horiz-adv-x="1708" 
d="M1389 1485l-891 -1542h-131l890 1542h132zM670 1440v-113h-357l-49 -231l8 -2q29 26 72 42.5t95 16.5q133 0 209.5 -76t76.5 -208q0 -130 -86.5 -222t-230.5 -92q-139 0 -220 69t-88 193h140q4 -72 49 -111.5t119 -39.5q88 0 133 53.5t45 146.5q0 85 -48.5 134t-131.5 49
q-48 0 -89 -22t-67 -64h-133l92 477h461zM1329 885q130 0 201.5 -64.5t71.5 -173.5q0 -62 -31 -106t-94 -70v-4q79 -23 120 -79t41 -138q0 -122 -85 -195t-228 -73q-144 0 -225.5 71t-81.5 195q0 75 41.5 132t118.5 85v4q-64 26 -93.5 72t-29.5 106q0 106 76 172t198 66z
M1184 647q0 -63 39 -100t104 -37q68 0 107 38t39 99q0 60 -39 96.5t-108 36.5q-65 0 -103.5 -36t-38.5 -97zM1155 252q0 -75 47 -120.5t125 -45.5q81 0 127.5 45t46.5 121q0 72 -49.5 118t-125.5 46q-72 0 -121.5 -46t-49.5 -118z" />
    <glyph glyph-name="seveneighths" unicode="&#x215e;" horiz-adv-x="1708" 
d="M1296 1485l-890 -1542h-132l891 1542h131zM745 1440v-107q-149 -169 -228 -355.5t-95 -402.5v-2h-152q15 199 101.5 391.5t232.5 358.5h-448v117h589zM1298 885q129 0 201 -63.5t72 -174.5q0 -64 -32 -108.5t-93 -67.5v-4q80 -24 121 -81t41 -136q0 -119 -84 -193.5
t-230 -74.5q-141 0 -224 70t-83 196q0 74 42.5 132t117.5 85v4q-64 26 -93.5 72t-29.5 106q0 105 76 171.5t198 66.5zM1153 647q0 -60 38 -98.5t105 -38.5q68 0 107 38t39 99q0 60 -39 96.5t-108 36.5q-66 0 -104 -37t-38 -96zM1124 252q0 -74 47 -120t125 -46
q77 0 125.5 44.5t48.5 121.5q0 73 -49.5 118.5t-125.5 45.5q-72 0 -121.5 -46t-49.5 -118z" />
    <glyph glyph-name="partialdiff" unicode="&#x2202;" horiz-adv-x="1047" 
d="M446 1477q248 0 381.5 -202t133.5 -535q0 -364 -120.5 -564.5t-355.5 -200.5q-180 0 -298.5 132.5t-118.5 328.5q0 192 113.5 315t293.5 123q94 0 178 -38.5t152 -115.5l2 96q0 133 -41 261.5t-122.5 199.5t-190.5 71q-58 0 -114 -23.5t-120 -73.5l-86 103
q72 63 148.5 93t164.5 30zM219 430q0 -139 75.5 -235.5t194.5 -96.5q140 0 223.5 142.5t83.5 332.5q-65 87 -144.5 131t-159.5 44q-122 0 -197.5 -90.5t-75.5 -227.5z" />
    <glyph glyph-name="Delta" unicode="&#x2206;" horiz-adv-x="1327" 
d="M772 1462l565 -1462h-1345l565 1462h215zM662 1288l-408 -1124h807l-395 1124h-4z" />
    <glyph glyph-name="product" unicode="&#x220f;" horiz-adv-x="1473" 
d="M1331 1610v-2048h-160v1900h-872v-1900h-160v2048h1192z" />
    <glyph glyph-name="summation" unicode="&#x2211;" horiz-adv-x="1260" 
d="M1182 1610v-148h-895l616 -868l-653 -885h956v-147h-1155v131l660 901l-631 885v131h1102z" />
    <glyph glyph-name="minus" unicode="&#x2212;" horiz-adv-x="1229" 
d="M1130 588v-139h-1032v139h1032z" />
    <glyph glyph-name="uni2215" unicode="&#x2215;" horiz-adv-x="342" 
d="M682 1485l-891 -1542h-131l891 1542h131z" />
    <glyph glyph-name="uni2219" unicode="&#x2219;" horiz-adv-x="569" 
d="M285 768q55 0 93 -40t38 -91q0 -49 -39 -90t-90 -41q-53 0 -93 38.5t-40 92.5t39 92.5t92 38.5z" />
    <glyph glyph-name="radical" unicode="&#x221a;" horiz-adv-x="1032" 
d="M1053 1610l-432 -2048h-154l-332 684l-96 -45l-57 123l229 106l309 -649l376 1823l2 6h155z" />
    <glyph glyph-name="infinity" unicode="&#x221e;" horiz-adv-x="1554" 
d="M1165 840q131 0 217 -89t86 -229q0 -139 -82 -230t-219 -91q-86 0 -177.5 48.5t-211.5 174.5l-127.5 -113t-127 -80t-136.5 -28q-133 0 -217 88t-84 225q0 140 84 230t213 90q92 0 181.5 -52t213.5 -182q143 149 224 193.5t163 44.5zM866 514q111 -106 177.5 -140
t130.5 -34q73 0 117 48.5t44 127.5q0 81 -44 132.5t-125 51.5q-53 0 -117 -36t-183 -150zM219 516q0 -78 46 -127t124 -49q63 0 139.5 44t161.5 130q-91 88 -167 136t-141 48q-73 0 -118 -53t-45 -129z" />
    <glyph glyph-name="integral" unicode="&#x222b;" horiz-adv-x="1135" 
d="M697 1610q68 0 115.5 -30.5t47.5 -84.5q0 -36 -25 -57t-61 -21q-25 0 -46 18.5t-37 44.5q-16 25 -32 25q-31 0 -47.5 -48.5t-16.5 -144.5l5 -175v-1122q0 -244 -65 -347.5t-192 -103.5q-59 0 -100.5 29t-41.5 77q0 31 24 52.5t51 21.5q41 0 67 -43q25 -43 40 -43
q28 0 43.5 57.5t15.5 174.5q0 27 -2 75l-2 1197q0 254 66 351t193 97z" />
    <glyph glyph-name="approxequal" unicode="&#x2248;" horiz-adv-x="1229" 
d="M1163 862q-15 -134 -87.5 -213.5t-186.5 -79.5q-78 0 -175.5 33t-199.5 73q-104 40 -168 40q-59 0 -96.5 -39.5t-48.5 -114.5h-133q15 135 87 214t187 79q106 0 286 -72q179 -73 257 -73q60 0 96.5 38.5t48.5 114.5h133zM1163 473q-15 -136 -88 -214.5t-186 -78.5
q-106 0 -288 73t-255 73q-59 0 -96.5 -39.5t-48.5 -114.5h-133q15 134 87.5 213.5t186.5 79.5q106 0 288 -73q181 -73 255 -73q58 0 95.5 39t49.5 115h133z" />
    <glyph glyph-name="notequal" unicode="&#x2260;" horiz-adv-x="1229" 
d="M862 1081l119 -65l-127 -221h276v-136h-356l-156 -282h512v-135h-591l-170 -299l-119 65l133 234h-285v135h365l155 282h-520v136h600z" />
    <glyph glyph-name="lessequal" unicode="&#x2264;" horiz-adv-x="1229" 
d="M1130 936l-856 -307l853 -306h3v-147l-1032 385v135l1032 385v-145zM1130 139v-139h-1032v139h1032z" />
    <glyph glyph-name="greaterequal" unicode="&#x2265;" horiz-adv-x="1229" 
d="M98 1081l1032 -385v-135l-1031 -385l-2 146l857 307l-856 307v145zM1130 139v-139h-1032v139h1032z" />
    <glyph glyph-name="lozenge" unicode="&#x25ca;" horiz-adv-x="1214" 
d="M680 1530l352 -801l-352 -801h-148l-350 801l350 801h148zM338 729l268 -645l271 645l-271 645z" />
    <glyph glyph-name="f_i" unicode="&#xf001;" horiz-adv-x="1061" 
d="M494 1479q22 0 57.5 -5t56.5 -12v-151q-20 7 -49 10.5t-49 3.5q-73 0 -103 -30t-30 -84v-152h205v-154h-205v-905h-174v905h-178v154h178v165q0 117 73.5 186t217.5 69zM922 1462v-213h-174v213h174zM922 1059v-1059h-174v1059h174z" />
    <glyph glyph-name="f_l" unicode="&#xf002;" horiz-adv-x="1061" 
d="M494 1479q22 0 57.5 -5t56.5 -12v-151q-20 7 -49 10.5t-49 3.5q-73 0 -103 -30t-30 -84v-152h205v-154h-205v-905h-174v905h-178v154h178v165q0 117 73.5 186t217.5 69zM922 1462v-1462h-174v1462h174z" />
    <glyph glyph-name="uniF8FF" unicode="&#xf8ff;" horiz-adv-x="1049" 
d="M1049 1470v-1470h-1049v1470h1049zM946 102v1264h-844v-1264h844zM530 1247q110 0 182 -74t72 -194q0 -82 -33 -135.5t-98 -112.5q-67 -60 -82.5 -94.5t-15.5 -157.5h-94l-4 40q0 118 33.5 175.5t94.5 113.5q34 31 64.5 70.5t30.5 92.5q0 72 -46.5 123t-109.5 51
q-67 0 -111.5 -48t-56.5 -146l-102 16q14 137 85.5 208.5t190.5 71.5zM455 377h114v-137h-114v137z" />
    <glyph glyph-name="NULL" horiz-adv-x="0" 
 />
    <glyph glyph-name="grave.cap" horiz-adv-x="455" 
d="M176 1888l176 -293h-131l-268 293h223z" />
    <glyph glyph-name="acute.cap" horiz-adv-x="455" 
d="M502 1888l-269 -293h-131l177 293h223z" />
    <glyph glyph-name="circumflex.cap" horiz-adv-x="455" 
d="M322 1888l213 -293h-173l-141 197l-143 -197h-158l211 293h191z" />
    <glyph glyph-name="caron.cap" horiz-adv-x="455" 
d="M92 1888l141 -196l144 196h158l-211 -293h-191l-213 293h172z" />
    <glyph glyph-name="caron.alt" horiz-adv-x="455" 
d="M440 1462l-153 -293h-123l53 293h223z" />
    <glyph glyph-name="tilde.cap" horiz-adv-x="455" 
d="M477 1858h107q-16 -94 -65.5 -161t-141.5 -67q-48 0 -94 17.5l-102 40.5q-57 22 -93 22q-37 0 -62.5 -24t-37.5 -62h-107q24 112 78.5 168.5t138.5 56.5q64 0 151 -41t134 -41q32 0 55.5 21t38.5 70z" />
    <glyph glyph-name="dieresis.cap" horiz-adv-x="455" 
d="M127 1837v-213h-184v213h184zM512 1837v-213h-184v213h184z" />
    <glyph glyph-name="macron.cap" horiz-adv-x="455" 
d="M578 1786v-113h-699v113h699z" />
    <glyph glyph-name="breve.cap" horiz-adv-x="455" 
d="M-92 1882h102q25 -85 82 -127.5t148 -42.5q73 0 119 36.5t83 133.5h105q-26 -138 -110.5 -210.5t-213.5 -72.5q-130 0 -211.5 68t-103.5 215z" />
    <glyph glyph-name="ring.cap" horiz-adv-x="455" 
d="M227 1993q94 0 163 -68t69 -162q0 -93 -68.5 -161t-163.5 -68t-163 68t-68 161q0 96 70 163t161 67zM90 1761q0 -60 39.5 -99.5t97.5 -39.5q61 0 99.5 40.5t38.5 98.5t-39 99t-100 41q-57 0 -96.5 -40t-39.5 -100z" />
    <glyph glyph-name="hungarumlaut.cap" horiz-adv-x="455" 
d="M283 1888l-246 -293h-135l166 293h215zM602 1888l-246 -293h-135l166 293h215z" />
    <glyph glyph-name="dotaccent.cap" horiz-adv-x="455" 
d="M319 1837v-213h-184v213h184z" />
    <glyph glyph-name="commaaccent" horiz-adv-x="569" 
d="M393 -102v-163q0 -75 -50.5 -119.5t-152.5 -45.5v72q29 6 55.5 20.5t26.5 46.5v8h-106v181h227z" />
    <glyph glyph-name="commaaccent.alt" horiz-adv-x="569" 
d="M373 1538q-34 -8 -58 -24t-24 -45v-7h106v-180h-227v161q0 77 51.5 122t151.5 45v-72z" />
    <glyph glyph-name="tonos.cap" horiz-adv-x="494" 
d="M473 1462l-154 -293h-139l68 293h225z" />
    </font>
</defs>
</svg>
